  0
SECTION
  2
HEADER
  9
$ACADVER
  1
AC1009
  9
$INSBASE
 10
0.0
 20
0.0
 30
0.0
  9
$EXTMIN
 10
62.378566908451539
 20
30.566383258385269
 30
0.0
  9
$EXTMAX
 10
131.6223446302125
 20
99.578258438129367
 30
5.0
  9
$LIMMIN
 10
0.0
 20
0.0
  9
$LIMMAX
 10
420.0
 20
297.0
  9
$ORTHOMODE
 70
     0
  9
$REGENMODE
 70
     1
  9
$FILLMODE
 70
     1
  9
$QTEXTMODE
 70
     0
  9
$MIRRTEXT
 70
     1
  9
$DRAGMODE
 70
     2
  9
$LTSCALE
 40
0.3
  9
$OSMODE
 70
    37
  9
$ATTMODE
 70
     1
  9
$TEXTSIZE
 40
2.5
  9
$TRACEWID
 40
1.0
  9
$TEXTSTYLE
  7
STANDARD
  9
$CLAYER
  8
2
  9
$CELTYPE
  6
BYLAYER
  9
$CECOLOR
 62
   256
  9
$DIMSCALE
 40
1.0
  9
$DIMASZ
 40
2.5
  9
$DIMEXO
 40
0.625
  9
$DIMDLI
 40
3.75
  9
$DIMRND
 40
0.0
  9
$DIMDLE
 40
0.0
  9
$DIMEXE
 40
1.25
  9
$DIMTP
 40
0.0
  9
$DIMTM
 40
0.0
  9
$DIMTXT
 40
2.5
  9
$DIMCEN
 40
2.5
  9
$DIMTSZ
 40
0.0
  9
$DIMTOL
 70
     0
  9
$DIMLIM
 70
     0
  9
$DIMTIH
 70
     0
  9
$DIMTOH
 70
     0
  9
$DIMSE1
 70
     0
  9
$DIMSE2
 70
     0
  9
$DIMTAD
 70
     1
  9
$DIMZIN
 70
     8
  9
$DIMBLK
  1

  9
$DIMASO
 70
     1
  9
$DIMSHO
 70
     1
  9
$DIMPOST
  1

  9
$DIMAPOST
  1

  9
$DIMALT
 70
     0
  9
$DIMALTD
 70
     3
  9
$DIMALTF
 40
0.03937007874016
  9
$DIMLFAC
 40
1.0
  9
$DIMTOFL
 70
     1
  9
$DIMTVP
 40
0.0
  9
$DIMTIX
 70
     0
  9
$DIMSOXD
 70
     0
  9
$DIMSAH
 70
     0
  9
$DIMBLK1
  1

  9
$DIMBLK2
  1

  9
$DIMSTYLE
  2
ISO-25
  9
$DIMCLRD
 70
     0
  9
$DIMCLRE
 70
     0
  9
$DIMCLRT
 70
     0
  9
$DIMTFAC
 40
1.0
  9
$DIMGAP
 40
0.625
  9
$LUNITS
 70
     2
  9
$LUPREC
 70
     4
  9
$SKETCHINC
 40
1.0
  9
$FILLETRAD
 40
10.0
  9
$AUNITS
 70
     0
  9
$AUPREC
 70
     0
  9
$MENU
  1
.
  9
$ELEVATION
 40
0.0
  9
$PELEVATION
 40
0.0
  9
$THICKNESS
 40
0.0
  9
$LIMCHECK
 70
     0
  9
$BLIPMODE
 70
     0
  9
$CHAMFERA
 40
10.0
  9
$CHAMFERB
 40
10.0
  9
$SKPOLY
 70
     0
  9
$TDCREATE
 40
2453436.068297314
  9
$TDUPDATE
 40
2453551.9008142701
  9
$TDINDWG
 40
0.0215449884
  9
$TDUSRTIMER
 40
0.0215448727
  9
$USRTIMER
 70
     1
  9
$ANGBASE
 50
0.0
  9
$ANGDIR
 70
     0
  9
$PDMODE
 70
     0
  9
$PDSIZE
 40
0.0
  9
$PLINEWID
 40
0.0
  9
$COORDS
 70
     1
  9
$SPLFRAME
 70
     0
  9
$SPLINETYPE
 70
     6
  9
$SPLINESEGS
 70
     8
  9
$ATTDIA
 70
     0
  9
$ATTREQ
 70
     1
  9
$HANDLING
 70
-16383
  9
$HANDSEED
  5
413
  9
$SURFTAB1
 70
     6
  9
$SURFTAB2
 70
     6
  9
$SURFTYPE
 70
     6
  9
$SURFU
 70
     6
  9
$SURFV
 70
     6
  9
$UCSNAME
  2

  9
$UCSORG
 10
0.0
 20
0.0
 30
0.0
  9
$UCSXDIR
 10
1.0
 20
0.0
 30
0.0
  9
$UCSYDIR
 10
0.0
 20
1.0
 30
0.0
  9
$PUCSNAME
  2

  9
$PUCSORG
 10
0.0
 20
0.0
 30
0.0
  9
$PUCSXDIR
 10
1.0
 20
0.0
 30
0.0
  9
$PUCSYDIR
 10
0.0
 20
1.0
 30
0.0
  9
$USERI1
 70
     0
  9
$USERI2
 70
     0
  9
$USERI3
 70
     0
  9
$USERI4
 70
     0
  9
$USERI5
 70
     0
  9
$USERR1
 40
0.0
  9
$USERR2
 40
0.0
  9
$USERR3
 40
0.0
  9
$USERR4
 40
0.0
  9
$USERR5
 40
0.0
  9
$WORLDVIEW
 70
     1
  9
$SHADEDGE
 70
     3
  9
$SHADEDIF
 70
    70
  9
$TILEMODE
 70
     1
  9
$MAXACTVP
 70
    64
  9
$PLIMCHECK
 70
     0
  9
$PEXTMIN
 10
1.0000000000000000E+020
 20
1.0000000000000000E+020
 30
1.0000000000000000E+020
  9
$PEXTMAX
 10
-1.0000000000000000E+020
 20
-1.0000000000000000E+020
 30
-1.0000000000000000E+020
  9
$PLIMMIN
 10
0.0
 20
0.0
  9
$PLIMMAX
 10
420.0
 20
297.0
  9
$UNITMODE
 70
     0
  9
$VISRETAIN
 70
     1
  9
$PLINEGEN
 70
     0
  9
$PSLTSCALE
 70
     1
  0
ENDSEC
  0
SECTION
  2
TABLES
  0
TABLE
  2
VPORT
 70
     2
  0
VPORT
  2
*ACTIVE
 70
     0
 10
0.0
 20
0.0
 11
1.0
 21
1.0
 12
123.0553564490219
 22
66.974227032148534
 13
0.0
 23
0.0
 14
10.0
 24
10.0
 15
10.0
 25
10.0
 16
0.0
 26
0.0
 36
1.0
 17
0.0
 27
0.0
 37
0.0
 40
82.223130384948746
 41
2.5392405063291141
 42
50.0
 43
0.0
 44
0.0
 50
0.0
 51
0.0
 71
     0
 72
   100
 73
     1
 74
     3
 75
     0
 76
     0
 77
     0
 78
     0
  0
ENDTAB
  0
TABLE
  2
LTYPE
 70
     3
  0
LTYPE
  2
CONTINUOUS
 70
     0
  3
Solid line
 72
    65
 73
     0
 40
0.0
  0
LTYPE
  2
CENTER
 70
     0
  3
Center ____ _ ____ _ ____ _ ____ _ ____ _ ____
 72
    65
 73
     4
 40
50.799999999999997
 49
31.75
 49
-6.3499999999999988
 49
6.3499999999999988
 49
-6.3499999999999988
  0
LTYPE
  2
DASHED2
 70
     0
  3
Dashed (.5x) _ _ _ _ _ _ _ _ _ _ _ _ _ _ _ _ _
 72
    65
 73
     2
 40
9.5249999999999986
 49
6.3499999999999988
 49
-3.1749999999999989
  0
ENDTAB
  0
TABLE
  2
LAYER
 70
     5
  0
LAYER
  2
0
 70
     0
 62
     7
  6
CONTINUOUS
  0
LAYER
  2
1
 70
     0
 62
     7
  6
CENTER
  0
LAYER
  2
2
 70
     0
 62
     7
  6
CONTINUOUS
  0
LAYER
  2
3
 70
     0
 62
     7
  6
DASHED2
  0
LAYER
  2
DEFPOINTS
 70
     0
 62
     7
  6
CONTINUOUS
  0
ENDTAB
  0
TABLE
  2
STYLE
 70
     3
  0
STYLE
  2
STANDARD
 70
     0
 40
0.0
 41
1.0
 50
0.0
 71
     0
 42
2.5
  3
txt
  4

  0
STYLE
  2
\U+00C9L\U+00C9R_\U+00C2S\U+00C2V\U+00C2B\U+00C2N
 70
     0
 40
1.0
 41
1.0
 50
0.0
 71
     0
 42
1.0
  3
\U+00E9l\U+00E9r \U+00E2S\U+00E2V\U+00E2b\U+00E2N
  4

  0
STYLE
  2

 70
     1
 40
0.0
 41
1.0
 50
0.0
 71
     0
 42
2.5
  3
ltypeshp.shx
  4

  0
ENDTAB
  0
TABLE
  2
VIEW
 70
     0
  0
ENDTAB
  0
TABLE
  2
UCS
 70
     0
  0
ENDTAB
  0
TABLE
  2
APPID
 70
     1
  0
APPID
  2
ACAD
 70
     0
  0
ENDTAB
  0
TABLE
  2
DIMSTYLE
 70
     2
  0
DIMSTYLE
  2
ISO-25
 70
     0
  3

  4

  5

  6

  7

 40
1.0
 41
2.5
 42
0.625
 43
3.75
 44
1.25
 45
0.0
 46
0.0
 47
0.0
 48
0.0
140
2.5
141
2.5
142
0.0
143
0.03937007874016
144
1.0
145
0.0
146
1.0
147
0.625
 71
     0
 72
     0
 73
     0
 74
     0
 75
     0
 76
     0
 77
     1
 78
     8
170
     0
171
     3
172
     1
173
     0
174
     0
175
     0
176
     0
177
     0
178
     0
  0
DIMSTYLE
  2
STANDARD
 70
     0
  3

  4

  5

  6

  7

 40
1.0
 41
0.18
 42
0.0625
 43
0.38
 44
0.18
 45
0.0
 46
0.0
 47
0.0
 48
0.0
140
0.18
141
0.09
142
0.0
143
25.399999999999999
144
1.0
145
0.0
146
1.0
147
0.09
 71
     0
 72
     0
 73
     1
 74
     1
 75
     0
 76
     0
 77
     0
 78
     0
170
     0
171
     2
172
     0
173
     0
174
     0
175
     0
176
     0
177
     0
178
     0
  0
ENDTAB
  0
ENDSEC
  0
SECTION
  2
BLOCKS
  0
BLOCK
  8
0
  2
$MODEL_SPACE
 70
     0
 10
0.0
 20
0.0
 30
0.0
  3
$MODEL_SPACE
  1

  0
ENDBLK
  5
21
  8
0
  0
BLOCK
 67
     1
  8
0
  2
$PAPER_SPACE
 70
     0
 10
0.0
 20
0.0
 30
0.0
  3
$PAPER_SPACE
  1

  0
ENDBLK
  5
1D
 67
     1
  8
0
  0
BLOCK
  8
0
  2
*D1
 70
     1
 10
0.0
 20
0.0
 30
0.0
  3
*D1
  1

  0
LINE
  5
3CF
  8
2
 62
     0
 10
90.569672590574996
 20
61.714925665133549
 30
0.0
 11
90.569672590574996
 21
87.931191660515438
 31
0.0
  0
LINE
  5
3D0
  8
2
 62
     0
 10
96.569672590574982
 20
61.714925665133549
 30
0.0
 11
96.569672590574982
 21
87.931191660515438
 31
0.0
  0
LINE
  5
3D1
  8
2
 62
     0
 10
88.069672590574996
 20
86.681191660515438
 30
0.0
 11
85.569672590574996
 21
86.681191660515438
 31
0.0
  0
LINE
  5
3D2
  8
2
 62
     0
 10
99.069672590574982
 20
86.681191660515438
 30
0.0
 11
101.5696725905749
 21
86.681191660515438
 31
0.0
  0
LINE
  5
3D3
  8
2
 62
     0
 10
90.569672590574996
 20
86.681191660515438
 30
0.0
 11
96.569672590574982
 21
86.681191660515438
 31
0.0
  0
SOLID
  5
3D4
  8
2
 62
     0
 10
88.069672590574996
 20
87.097858327182095
 30
0.0
 11
88.069672590574996
 21
86.264524993848767
 31
0.0
 12
90.569672590574996
 22
86.681191660515438
 32
0.0
 13
90.569672590574996
 23
86.681191660515438
 33
0.0
  0
SOLID
  5
3D5
  8
2
 62
     0
 10
99.069672590574982
 20
87.097858327182095
 30
0.0
 11
99.069672590574982
 21
86.264524993848767
 31
0.0
 12
96.569672590574982
 22
86.681191660515438
 32
0.0
 13
96.569672590574982
 23
86.681191660515438
 33
0.0
  0
INSERT
  5
3D6
  8
2
  2
*U11
 10
0.0
 20
0.0
 30
0.0
  0
POINT
  5
3D7
  8
DEFPOINTS
 62
     0
 10
90.569672590574996
 20
61.089925665133549
 30
0.0
  0
POINT
  5
3D8
  8
DEFPOINTS
 62
     0
 10
96.569672590574982
 20
61.089925665133549
 30
0.0
  0
POINT
  5
3D9
  8
DEFPOINTS
 62
     0
 10
96.569672590574982
 20
86.681191660515438
 30
0.0
  0
ENDBLK
  5
349
  8
0
  0
BLOCK
  8
0
  2
*D2
 70
     1
 10
0.0
 20
0.0
 30
0.0
  3
*D2
  1

  0
LINE
  5
3C6
  8
2
 62
     0
 10
88.569672590574982
 20
77.714925665133549
 30
0.0
 11
88.569672590574982
 21
93.04989336661437
 31
0.0
  0
LINE
  5
3C7
  8
2
 62
     0
 10
98.569672590574982
 20
77.714925665133549
 30
0.0
 11
98.569672590574982
 21
93.04989336661437
 31
0.0
  0
LINE
  5
3C8
  8
2
 62
     0
 10
91.069672590574982
 20
91.79989336661437
 30
0.0
 11
96.069672590574982
 21
91.79989336661437
 31
0.0
  0
SOLID
  5
3C9
  8
2
 62
     0
 10
91.069672590574982
 20
92.216560033281056
 30
0.0
 11
91.069672590574982
 21
91.383226699947684
 31
0.0
 12
88.569672590574982
 22
91.79989336661437
 32
0.0
 13
88.569672590574982
 23
91.79989336661437
 33
0.0
  0
SOLID
  5
3CA
  8
2
 62
     0
 10
96.069672590574982
 20
92.216560033281056
 30
0.0
 11
96.069672590574982
 21
91.383226699947684
 31
0.0
 12
98.569672590574982
 22
91.79989336661437
 32
0.0
 13
98.569672590574982
 23
91.79989336661437
 33
0.0
  0
INSERT
  5
3CB
  8
2
  2
*U10
 10
0.0
 20
0.0
 30
0.0
  0
POINT
  5
3CC
  8
DEFPOINTS
 62
     0
 10
88.569672590574982
 20
77.089925665133549
 30
0.0
  0
POINT
  5
3CD
  8
DEFPOINTS
 62
     0
 10
98.569672590574982
 20
77.089925665133549
 30
0.0
  0
POINT
  5
3CE
  8
DEFPOINTS
 62
     0
 10
98.569672590574982
 20
91.79989336661437
 30
0.0
  0
ENDBLK
  5
361
  8
0
  0
BLOCK
  8
0
  2
*D3
 70
     1
 10
0.0
 20
0.0
 30
0.0
  3
*D3
  1

  0
LINE
  5
3BD
  8
2
 62
     0
 10
85.569672590574996
 20
77.714925665133549
 30
0.0
 11
85.569672590574996
 21
97.703258438129367
 31
0.0
  0
LINE
  5
3BE
  8
2
 62
     0
 10
101.5696725905749
 20
77.714925665133549
 30
0.0
 11
101.5696725905749
 21
97.703258438129367
 31
0.0
  0
LINE
  5
3BF
  8
2
 62
     0
 10
88.069672590574996
 20
96.453258438129367
 30
0.0
 11
99.069672590574982
 21
96.453258438129367
 31
0.0
  0
SOLID
  5
3C0
  8
2
 62
     0
 10
88.069672590574996
 20
96.869925104796053
 30
0.0
 11
88.069672590574996
 21
96.036591771462696
 31
0.0
 12
85.569672590574996
 22
96.453258438129367
 32
0.0
 13
85.569672590574996
 23
96.453258438129367
 33
0.0
  0
SOLID
  5
3C1
  8
2
 62
     0
 10
99.069672590574982
 20
96.869925104796053
 30
0.0
 11
99.069672590574982
 21
96.036591771462696
 31
0.0
 12
101.5696725905749
 22
96.453258438129367
 32
0.0
 13
101.5696725905749
 23
96.453258438129367
 33
0.0
  0
INSERT
  5
3C2
  8
2
  2
*U9
 10
0.0
 20
0.0
 30
0.0
  0
POINT
  5
3C3
  8
DEFPOINTS
 62
     0
 10
85.569672590574996
 20
77.089925665133549
 30
0.0
  0
POINT
  5
3C4
  8
DEFPOINTS
 62
     0
 10
101.5696725905749
 20
77.089925665133549
 30
0.0
  0
POINT
  5
3C5
  8
DEFPOINTS
 62
     0
 10
101.5696725905749
 20
96.453258438129367
 30
0.0
  0
ENDBLK
  5
36E
  8
0
  0
BLOCK
  8
0
  2
*D4
 70
     1
 10
0.0
 20
0.0
 30
0.0
  3
*D4
  1

  0
LINE
  5
371
  8
2
 62
     0
 10
102.1946725905749
 20
77.089925665133549
 30
0.0
 11
119.6624625377962
 21
77.089925665133549
 31
0.0
  0
LINE
  5
372
  8
2
 62
     0
 10
99.194672590574982
 20
61.089925665133549
 30
0.0
 11
119.6624625377962
 21
61.089925665133542
 31
0.0
  0
LINE
  5
373
  8
2
 62
     0
 10
118.4124625377962
 20
74.589925665133549
 30
0.0
 11
118.4124625377962
 21
63.589925665133542
 31
0.0
  0
SOLID
  5
374
  8
2
 62
     0
 10
117.9957958711295
 20
74.589925665133549
 30
0.0
 11
118.8291292044628
 21
74.589925665133549
 31
0.0
 12
118.4124625377962
 22
77.089925665133549
 32
0.0
 13
118.4124625377962
 23
77.089925665133549
 33
0.0
  0
SOLID
  5
375
  8
2
 62
     0
 10
117.9957958711295
 20
63.589925665133542
 30
0.0
 11
118.8291292044628
 21
63.589925665133542
 31
0.0
 12
118.4124625377962
 22
61.089925665133542
 32
0.0
 13
118.4124625377962
 23
61.089925665133542
 33
0.0
  0
TEXT
  5
376
  8
2
 62
     0
 10
117.7874625377961
 20
67.423258998466892
 30
0.0
 40
2.5
  1
16
 50
90.0
  0
POINT
  5
377
  8
DEFPOINTS
 62
     0
 10
101.5696725905749
 20
77.089925665133549
 30
0.0
  0
POINT
  5
378
  8
DEFPOINTS
 62
     0
 10
98.569672590574982
 20
61.089925665133549
 30
0.0
  0
POINT
  5
379
  8
DEFPOINTS
 62
     0
 10
118.4124625377962
 20
61.089925665133542
 30
0.0
  0
ENDBLK
  5
37B
  8
0
  0
BLOCK
  8
0
  2
*D5
 70
     1
 10
0.0
 20
0.0
 30
0.0
  3
*D5
  1

  0
LINE
  5
37E
  8
2
 62
     0
 10
102.8196725905749
 20
77.089925665133549
 30
0.0
 11
125.7200650273995
 21
77.089925665133549
 31
0.0
  0
LINE
  5
37F
  8
2
 62
     0
 10
104.544660718722
 20
58.089925665133549
 30
0.0
 11
125.7200650273995
 21
58.089925665133542
 31
0.0
  0
LINE
  5
380
  8
2
 62
     0
 10
124.4700650273995
 20
74.589925665133549
 30
0.0
 11
124.4700650273995
 21
60.589925665133542
 31
0.0
  0
SOLID
  5
381
  8
2
 62
     0
 10
124.0533983607328
 20
74.589925665133549
 30
0.0
 11
124.8867316940662
 21
74.589925665133549
 31
0.0
 12
124.4700650273995
 22
77.089925665133549
 32
0.0
 13
124.4700650273995
 23
77.089925665133549
 33
0.0
  0
SOLID
  5
382
  8
2
 62
     0
 10
124.0533983607328
 20
60.589925665133542
 30
0.0
 11
124.8867316940662
 21
60.589925665133542
 31
0.0
 12
124.4700650273995
 22
58.089925665133542
 32
0.0
 13
124.4700650273995
 23
58.089925665133542
 33
0.0
  0
TEXT
  5
383
  8
2
 62
     0
 10
123.8450650273995
 20
65.923258998466892
 30
0.0
 40
2.5
  1
19
 50
90.0
  0
POINT
  5
384
  8
DEFPOINTS
 62
     0
 10
102.1946725905749
 20
77.089925665133549
 30
0.0
  0
POINT
  5
385
  8
DEFPOINTS
 62
     0
 10
103.919660718722
 20
58.089925665133549
 30
0.0
  0
POINT
  5
386
  8
DEFPOINTS
 62
     0
 10
124.4700650273995
 20
58.089925665133542
 30
0.0
  0
ENDBLK
  5
388
  8
0
  0
BLOCK
  8
0
  2
*D6
 70
     1
 10
0.0
 20
0.0
 30
0.0
  3
*D6
  1

  0
LINE
  5
38B
  8
2
 62
     0
 10
102.1441725905749
 20
77.089925665133549
 30
0.0
 11
131.6223446302125
 21
77.089925665133549
 31
0.0
  0
LINE
  5
38C
  8
2
 62
     0
 10
110.6946725905749
 20
52.089925665133549
 30
0.0
 11
131.6223446302125
 21
52.089925665133542
 31
0.0
  0
LINE
  5
38D
  8
2
 62
     0
 10
130.3723446302125
 20
74.589925665133549
 30
0.0
 11
130.3723446302125
 21
54.589925665133542
 31
0.0
  0
SOLID
  5
38E
  8
2
 62
     0
 10
129.9556779635459
 20
74.589925665133549
 30
0.0
 11
130.78901129687921
 21
74.589925665133549
 31
0.0
 12
130.3723446302125
 22
77.089925665133549
 32
0.0
 13
130.3723446302125
 23
77.089925665133549
 33
0.0
  0
SOLID
  5
38F
  8
2
 62
     0
 10
129.95567796354581
 20
54.589925665133542
 30
0.0
 11
130.7890112968791
 21
54.589925665133542
 31
0.0
 12
130.3723446302125
 22
52.089925665133542
 32
0.0
 13
130.3723446302125
 23
52.089925665133542
 33
0.0
  0
TEXT
  5
390
  8
2
 62
     0
 10
129.7473446302125
 20
62.506592331800228
 30
0.0
 40
2.5
  1
25
 50
90.0
  0
POINT
  5
391
  8
DEFPOINTS
 62
     0
 10
101.5191725905749
 20
77.089925665133549
 30
0.0
  0
POINT
  5
392
  8
DEFPOINTS
 62
     0
 10
110.0696725905749
 20
52.089925665133549
 30
0.0
  0
POINT
  5
393
  8
DEFPOINTS
 62
     0
 10
130.3723446302125
 20
52.089925665133542
 30
0.0
  0
ENDBLK
  5
395
  8
0
  0
BLOCK
  8
0
  2
*D7
 70
     1
 10
0.0
 20
0.0
 30
0.0
  3
*D7
  1

  0
LINE
  5
3DA
  8
2
 62
     0
 10
77.069672590574982
 20
51.464925665133549
 30
0.0
 11
77.069672590574982
 21
43.610644156032727
 31
0.0
  0
LINE
  5
3DB
  8
2
 62
     0
 10
110.0696725905749
 20
51.464925665133549
 30
0.0
 11
110.0696725905749
 21
43.610644156032727
 31
0.0
  0
LINE
  5
3DC
  8
2
 62
     0
 10
79.569672590574982
 20
44.860644156032727
 30
0.0
 11
107.5696725905749
 21
44.860644156032727
 31
0.0
  0
SOLID
  5
3DD
  8
2
 62
     0
 10
79.569672590574982
 20
45.277310822699398
 30
0.0
 11
79.569672590574982
 21
44.44397748936607
 31
0.0
 12
77.069672590574982
 22
44.860644156032727
 32
0.0
 13
77.069672590574982
 23
44.860644156032727
 33
0.0
  0
SOLID
  5
3DE
  8
2
 62
     0
 10
107.5696725905749
 20
45.277310822699398
 30
0.0
 11
107.5696725905749
 21
44.44397748936607
 31
0.0
 12
110.0696725905749
 22
44.860644156032727
 32
0.0
 13
110.0696725905749
 23
44.860644156032727
 33
0.0
  0
INSERT
  5
3DF
  8
2
  2
*U12
 10
0.0
 20
0.0
 30
0.0
  0
POINT
  5
3E0
  8
DEFPOINTS
 62
     0
 10
77.069672590574982
 20
52.089925665133549
 30
0.0
  0
POINT
  5
3E1
  8
DEFPOINTS
 62
     0
 10
110.0696725905749
 20
52.089925665133549
 30
0.0
  0
POINT
  5
3E2
  8
DEFPOINTS
 62
     0
 10
110.0696725905749
 20
44.860644156032727
 30
0.0
  0
ENDBLK
  5
3A3
  8
0
  0
BLOCK
  8
0
  2
*D8
 70
     1
 10
0.0
 20
0.0
 30
0.0
  3
*D8
  1

  0
LINE
  5
3A6
  8
2
 62
     0
 10
76.444672590574982
 20
52.089925665133549
 30
0.0
 11
64.253566908451546
 21
52.089925665133549
 31
0.0
  0
LINE
  5
3A7
  8
2
 62
     0
 10
81.640050433568391
 20
55.589925665133549
 30
0.0
 11
64.253566908451546
 21
55.589925665133563
 31
0.0
  0
LINE
  5
3A8
  8
2
 62
     0
 10
65.503566908451546
 20
49.589925665133549
 30
0.0
 11
65.503566908451546
 21
47.089925665133542
 31
0.0
  0
LINE
  5
3A9
  8
2
 62
     0
 10
65.503566908451546
 20
58.089925665133563
 30
0.0
 11
65.503566908451546
 21
66.839925665133549
 31
0.0
  0
LINE
  5
3AA
  8
2
 62
     0
 10
65.503566908451546
 20
52.089925665133549
 30
0.0
 11
65.503566908451546
 21
55.589925665133563
 31
0.0
  0
SOLID
  5
3AB
  8
2
 62
     0
 10
65.086900241784875
 20
49.589925665133549
 30
0.0
 11
65.920233575118218
 21
49.589925665133549
 31
0.0
 12
65.503566908451546
 22
52.089925665133549
 32
0.0
 13
65.503566908451546
 23
52.089925665133549
 33
0.0
  0
SOLID
  5
3AC
  8
2
 62
     0
 10
65.086900241784875
 20
58.089925665133563
 30
0.0
 11
65.920233575118218
 21
58.089925665133563
 31
0.0
 12
65.503566908451546
 22
55.589925665133563
 32
0.0
 13
65.503566908451546
 23
55.589925665133563
 33
0.0
  0
TEXT
  5
3AD
  8
2
 62
     0
 10
64.878566908451546
 20
61.21492566513357
 30
0.0
 40
2.5
  1
3.5
 50
90.0
  0
POINT
  5
3AE
  8
DEFPOINTS
 62
     0
 10
77.069672590574982
 20
52.089925665133549
 30
0.0
  0
POINT
  5
3AF
  8
DEFPOINTS
 62
     0
 10
82.265050433568391
 20
55.589925665133549
 30
0.0
  0
POINT
  5
3B0
  8
DEFPOINTS
 62
     0
 10
65.503566908451546
 20
55.589925665133563
 30
0.0
  0
ENDBLK
  5
3B2
  8
0
  0
BLOCK
  8
0
  2
*U9
 70
     1
 10
0.0
 20
0.0
 30
0.0
  3
*U9
  1

  0
TEXT
  5
400
  8
2
 62
     0
 10
90.653005923908324
 20
97.078258438129367
 30
0.0
 40
2.5
  1
\U+2205
  0
TEXT
  5
401
  8
2
 62
     0
 10
93.153005923908324
 20
97.078258438129367
 30
0.0
 40
2.5
  1
16
  0
ENDBLK
  5
403
  8
0
  0
BLOCK
  8
0
  2
*U10
 70
     1
 10
0.0
 20
0.0
 30
0.0
  3
*U10
  1

  0
TEXT
  5
405
  8
2
 62
     0
 10
90.861339257241653
 20
92.42489336661437
 30
0.0
 40
2.5
  1
\U+2205
  0
TEXT
  5
406
  8
2
 62
     0
 10
93.361339257241653
 20
92.42489336661437
 30
0.0
 40
2.5
  1
10
  0
ENDBLK
  5
408
  8
0
  0
BLOCK
  8
0
  2
*U11
 70
     1
 10
0.0
 20
0.0
 30
0.0
  3
*U11
  1

  0
TEXT
  5
40A
  8
2
 62
     0
 10
91.486339257241653
 20
87.306191660515438
 30
0.0
 40
2.5
  1
\U+2205
  0
TEXT
  5
40B
  8
2
 62
     0
 10
93.986339257241653
 20
87.306191660515438
 30
0.0
 40
2.5
  1
6
  0
ENDBLK
  5
40D
  8
0
  0
BLOCK
  8
0
  2
*U12
 70
     1
 10
0.0
 20
0.0
 30
0.0
  3
*U12
  1

  0
TEXT
  5
40F
  8
2
 62
     0
 10
90.236339257241653
 20
45.485644156032727
 30
0.0
 40
2.5
  1
\U+2205
  0
TEXT
  5
410
  8
2
 62
     0
 10
92.736339257241653
 20
45.485644156032727
 30
0.0
 40
2.5
  1
33
  0
ENDBLK
  5
412
  8
0
  0
ENDSEC
  0
SECTION
  2
ENTITIES
  0
TEXT
  5
148
  8
2
 10
74.462954432532982
 20
30.808282686956709
 30
0.0
 40
2.5399440000000002
  1
No. 104.033.034._
 51
-0.0000015352344868
  7
\U+00C9L\U+00C9R_\U+00C2S\U+00C2V\U+00C2B\U+00C2N
  0
LINE
  5
1B8
  8
0
 39
5.0
 10
82.265050433568391
 20
55.589925665133549
 30
0.0
 11
77.369672590574979
 21
52.089925665133549
 31
0.0
  0
LINE
  5
1C3
  8
1
 10
93.569672590574982
 20
77.589925665133549
 30
0.0
 11
93.569672590574982
 21
51.589925665133542
 31
0.0
  0
LINE
  5
1C4
  8
0
 39
5.0
 10
93.569672590574982
 20
77.089925665133549
 30
0.0
 11
85.620172590574981
 21
77.089925665133549
 31
0.0
  0
LINE
  5
1C7
  8
0
 39
5.0
 10
83.219684462427907
 20
58.089925665133549
 30
0.0
 11
77.069672590574982
 21
52.089925665133549
 31
0.0
  0
LINE
  5
1DC
  8
0
 10
88.567672590574958
 20
77.089925665133549
 30
0.0
 11
93.569672590574982
 21
77.089925665133549
 31
0.0
  0
LINE
  5
23C
  8
0
 39
5.0
 10
92.876472590574963
 20
54.693325665133543
 30
0.0
 11
92.876472590574963
 21
55.589925665133549
 31
0.0
  0
LINE
  5
23E
  8
0
 39
5.0
 10
88.767672590574961
 20
55.589925665133549
 30
0.0
 11
88.767672590574961
 21
54.693325665133543
 31
0.0
  0
LINE
  5
240
  8
0
 39
5.0
 10
82.672572590574973
 20
54.693325665133543
 30
0.0
 11
92.854972590574974
 21
54.693325665133543
 31
0.0
  0
LINE
  5
243
  8
0
 39
5.0
 10
82.672572590574973
 20
55.589925665133549
 30
0.0
 11
82.672572590574973
 21
54.693325665133543
 31
0.0
  0
LINE
  5
244
  8
0
 39
5.0
 10
82.672572590574973
 20
54.693325665133543
 30
0.0
 11
82.672572590574973
 21
54.693325665133543
 31
0.0
  0
LINE
  5
246
  8
0
 39
5.0
 10
86.959972590574964
 20
54.693325665133543
 30
0.0
 11
86.959972590574964
 21
55.589925665133549
 31
0.0
  0
LINE
  5
248
  8
0
 39
5.0
 10
85.620172590574981
 20
55.589925665133549
 30
0.0
 11
85.620172590574981
 21
54.693325665133543
 31
0.0
  0
LINE
  5
249
  8
0
 39
5.0
 10
85.620172590574981
 20
54.693325665133543
 30
0.0
 11
85.620172590574981
 21
54.693325665133543
 31
0.0
  0
LINE
  5
24F
  8
0
 10
88.569672590574982
 20
77.089925665133549
 30
0.0
 11
88.569672590574982
 21
61.089925665133549
 31
0.0
  0
LINE
  5
250
  8
0
 10
85.569672590574996
 20
77.089925665133549
 30
0.0
 11
85.569672590574996
 21
58.089925665133549
 31
0.0
  0
LINE
  5
252
  8
0
 10
85.569672590574996
 20
77.089925665133549
 30
0.0
 11
93.569672590574982
 21
77.089925665133549
 31
0.0
  0
LINE
  5
257
  8
0
 10
88.569672590574982
 20
61.089925665133549
 30
0.0
 11
93.569672590574982
 21
61.089925665133549
 31
0.0
  0
LINE
  5
25C
  8
0
 10
90.569672590574996
 20
61.089925665133549
 30
0.0
 11
90.569672590574996
 21
55.589925665133542
 31
0.0
  0
LINE
  5
25E
  8
0
 10
85.569672590574996
 20
58.089925665133549
 30
0.0
 11
83.219684462427907
 21
58.089925665133549
 31
0.0
  0
LINE
  5
270
  8
0
 10
93.569672590574982
 20
52.089925665133549
 30
0.0
 11
77.069672590574982
 21
52.089925665133549
 31
0.0
  0
LINE
  5
271
  8
0
 10
82.265050433568391
 20
55.589925665133549
 30
0.0
 11
85.620172590574967
 21
55.589925665133549
 31
0.0
  0
LINE
  5
273
  8
0
 10
86.959972590574964
 20
55.589925665133549
 30
0.0
 11
93.569672590574982
 21
55.589925665133549
 31
0.0
  0
LINE
  5
323
  8
0
 39
5.0
 10
101.5191725905749
 20
54.693325665133543
 30
0.0
 11
101.5191725905749
 21
54.693325665133543
 31
0.0
  0
LINE
  5
324
  8
0
 39
5.0
 10
101.5191725905749
 20
55.589925665133549
 30
0.0
 11
101.5191725905749
 21
54.693325665133543
 31
0.0
  0
LINE
  5
325
  8
0
 39
5.0
 10
100.1793725905749
 20
54.693325665133543
 30
0.0
 11
100.1793725905749
 21
55.589925665133549
 31
0.0
  0
LINE
  5
326
  8
0
 39
5.0
 10
104.46677259057491
 20
54.693325665133543
 30
0.0
 11
104.46677259057491
 21
54.693325665133543
 31
0.0
  0
LINE
  5
327
  8
0
 39
5.0
 10
104.46677259057491
 20
55.589925665133549
 30
0.0
 11
104.46677259057491
 21
54.693325665133543
 31
0.0
  0
LINE
  5
328
  8
0
 39
5.0
 10
104.46677259057491
 20
54.693325665133543
 30
0.0
 11
94.284372590574989
 21
54.693325665133543
 31
0.0
  0
LINE
  5
329
  8
0
 39
5.0
 10
98.371672590575017
 20
55.589925665133549
 30
0.0
 11
98.371672590575017
 21
54.693325665133543
 31
0.0
  0
LINE
  5
32A
  8
0
 39
5.0
 10
94.262872590575014
 20
54.693325665133543
 30
0.0
 11
94.262872590575014
 21
55.589925665133549
 31
0.0
  0
LINE
  5
32B
  8
0
 39
5.0
 10
103.919660718722
 20
58.089925665133549
 30
0.0
 11
110.0696725905749
 21
52.089925665133549
 31
0.0
  0
LINE
  5
32C
  8
0
 39
5.0
 10
93.569672590574982
 20
77.089925665133549
 30
0.0
 11
101.5191725905749
 21
77.089925665133549
 31
0.0
  0
LINE
  5
32D
  8
0
 39
5.0
 10
104.8742947475815
 20
55.589925665133549
 30
0.0
 11
109.7696725905749
 21
52.089925665133549
 31
0.0
  0
LINE
  5
32E
  8
0
 10
93.569672590574982
 20
52.089925665133549
 30
0.0
 11
110.0696725905749
 21
52.089925665133549
 31
0.0
  0
LINE
  5
32F
  8
0
 10
96.569672590574982
 20
61.089925665133549
 30
0.0
 11
96.569672590574982
 21
55.589925665133542
 31
0.0
  0
LINE
  5
330
  8
0
 10
104.8742947475815
 20
55.589925665133549
 30
0.0
 11
101.5191725905749
 21
55.589925665133549
 31
0.0
  0
LINE
  5
331
  8
0
 10
100.179372590575
 20
55.589925665133549
 30
0.0
 11
93.569672590574982
 21
55.589925665133549
 31
0.0
  0
LINE
  5
332
  8
0
 10
101.5696725905749
 20
77.089925665133549
 30
0.0
 11
101.5696725905749
 21
58.089925665133549
 31
0.0
  0
LINE
  5
333
  8
0
 10
98.569672590574982
 20
77.089925665133549
 30
0.0
 11
98.569672590574982
 21
61.089925665133549
 31
0.0
  0
LINE
  5
334
  8
0
 10
101.5696725905749
 20
58.089925665133549
 30
0.0
 11
103.919660718722
 21
58.089925665133549
 31
0.0
  0
LINE
  5
335
  8
0
 10
98.569672590574982
 20
61.089925665133549
 30
0.0
 11
93.569672590574982
 21
61.089925665133549
 31
0.0
  0
LINE
  5
336
  8
0
 10
101.5696725905749
 20
77.089925665133549
 30
0.0
 11
93.569672590574982
 21
77.089925665133549
 31
0.0
  0
LINE
  5
337
  8
0
 10
98.571672590574991
 20
77.089925665133549
 30
0.0
 11
93.569672590574982
 21
77.089925665133549
 31
0.0
  0
DIMENSION
  5
33B
  8
2
  2
*D1
 10
96.569672590574982
 20
86.681191660515438
 30
0.0
 11
93.569672590574982
 21
88.556191660515438
 31
0.0
 70
     0
  1
%%c<>
 13
90.569672590574996
 23
61.089925665133549
 33
0.0
 14
96.569672590574982
 24
61.089925665133549
 34
0.0
  0
DIMENSION
  5
355
  8
2
  2
*D2
 10
98.569672590574982
 20
91.79989336661437
 30
0.0
 11
93.569672590574982
 21
93.67489336661437
 31
0.0
 70
     0
  1
%%c<>
 13
88.569672590574982
 23
77.089925665133549
 33
0.0
 14
98.569672590574982
 24
77.089925665133549
 34
0.0
  0
DIMENSION
  5
362
  8
2
  2
*D3
 10
101.5696725905749
 20
96.453258438129367
 30
0.0
 11
93.569672590574982
 21
98.328258438129367
 31
0.0
 70
     0
  1
%%c<>
 13
85.569672590574996
 23
77.089925665133549
 33
0.0
 14
101.5696725905749
 24
77.089925665133549
 34
0.0
  0
DIMENSION
  5
36F
  8
2
  2
*D4
 10
118.4124625377962
 20
61.089925665133542
 30
0.0
 11
116.5374625377961
 21
69.089925665133563
 31
0.0
 70
     0
 13
101.5696725905749
 23
77.089925665133549
 33
0.0
 14
98.569672590574982
 24
61.089925665133549
 34
0.0
 50
90.0
  0
DIMENSION
  5
37C
  8
2
  2
*D5
 10
124.4700650273995
 20
58.089925665133542
 30
0.0
 11
122.5950650273995
 21
67.589925665133563
 31
0.0
 70
     0
 13
102.1946725905749
 23
77.089925665133549
 33
0.0
 14
103.919660718722
 24
58.089925665133549
 34
0.0
 50
90.0
  0
DIMENSION
  5
389
  8
2
  2
*D6
 10
130.3723446302125
 20
52.089925665133542
 30
0.0
 11
128.4973446302125
 21
64.589925665133563
 31
0.0
 70
     0
 13
101.5191725905749
 23
77.089925665133549
 33
0.0
 14
110.0696725905749
 24
52.089925665133549
 34
0.0
 50
90.0
  0
DIMENSION
  5
397
  8
2
  2
*D7
 10
110.0696725905749
 20
44.860644156032727
 30
0.0
 11
93.569672590574982
 21
46.735644156032727
 31
0.0
 70
     0
  1
%%c<>
 13
77.069672590574982
 23
52.089925665133549
 33
0.0
 14
110.0696725905749
 24
52.089925665133549
 34
0.0
1001
ACAD
1000
DSTYLE
1002
{
1070
   271
1070
     6
1002
}
  0
DIMENSION
  5
3A4
  8
2
  2
*D8
 10
65.503566908451546
 20
55.589925665133563
 30
0.0
 11
63.628566908451539
 21
63.71492566513357
 31
0.0
 70
     0
 13
77.069672590574982
 23
52.089925665133549
 33
0.0
 14
82.265050433568391
 24
55.589925665133549
 34
0.0
 50
90.0
  0
ENDSEC
  0
EOF
