  0
SECTION
  2
HEADER
  9
$ACADVER
  1
AC1009
  9
$INSBASE
 10
0.0
 20
0.0
 30
0.0
  9
$EXTMIN
 10
57.424394440832067
 20
27.833280454856901
 30
0.0
  9
$EXTMAX
 10
129.18187769461889
 20
115.76101881412271
 30
5.0
  9
$LIMMIN
 10
0.0
 20
0.0
  9
$LIMMAX
 10
420.0
 20
297.0
  9
$ORTHOMODE
 70
     0
  9
$REGENMODE
 70
     1
  9
$FILLMODE
 70
     1
  9
$QTEXTMODE
 70
     0
  9
$MIRRTEXT
 70
     1
  9
$DRAGMODE
 70
     2
  9
$LTSCALE
 40
0.3
  9
$OSMODE
 70
    37
  9
$ATTMODE
 70
     1
  9
$TEXTSIZE
 40
2.5
  9
$TRACEWID
 40
1.0
  9
$TEXTSTYLE
  7
STANDARD
  9
$CLAYER
  8
0
  9
$CELTYPE
  6
BYLAYER
  9
$CECOLOR
 62
   256
  9
$DIMSCALE
 40
1.0
  9
$DIMASZ
 40
2.5
  9
$DIMEXO
 40
0.625
  9
$DIMDLI
 40
3.75
  9
$DIMRND
 40
0.0
  9
$DIMDLE
 40
0.0
  9
$DIMEXE
 40
1.25
  9
$DIMTP
 40
0.0
  9
$DIMTM
 40
0.0
  9
$DIMTXT
 40
2.5
  9
$DIMCEN
 40
2.5
  9
$DIMTSZ
 40
0.0
  9
$DIMTOL
 70
     0
  9
$DIMLIM
 70
     0
  9
$DIMTIH
 70
     0
  9
$DIMTOH
 70
     0
  9
$DIMSE1
 70
     0
  9
$DIMSE2
 70
     0
  9
$DIMTAD
 70
     1
  9
$DIMZIN
 70
     8
  9
$DIMBLK
  1

  9
$DIMASO
 70
     1
  9
$DIMSHO
 70
     1
  9
$DIMPOST
  1

  9
$DIMAPOST
  1

  9
$DIMALT
 70
     0
  9
$DIMALTD
 70
     3
  9
$DIMALTF
 40
0.03937007874016
  9
$DIMLFAC
 40
1.0
  9
$DIMTOFL
 70
     1
  9
$DIMTVP
 40
0.0
  9
$DIMTIX
 70
     0
  9
$DIMSOXD
 70
     0
  9
$DIMSAH
 70
     0
  9
$DIMBLK1
  1

  9
$DIMBLK2
  1

  9
$DIMSTYLE
  2
ISO-25
  9
$DIMCLRD
 70
     0
  9
$DIMCLRE
 70
     0
  9
$DIMCLRT
 70
     0
  9
$DIMTFAC
 40
1.0
  9
$DIMGAP
 40
0.625
  9
$LUNITS
 70
     2
  9
$LUPREC
 70
     4
  9
$SKETCHINC
 40
1.0
  9
$FILLETRAD
 40
10.0
  9
$AUNITS
 70
     0
  9
$AUPREC
 70
     0
  9
$MENU
  1
.
  9
$ELEVATION
 40
0.0
  9
$PELEVATION
 40
0.0
  9
$THICKNESS
 40
0.0
  9
$LIMCHECK
 70
     0
  9
$BLIPMODE
 70
     0
  9
$CHAMFERA
 40
10.0
  9
$CHAMFERB
 40
10.0
  9
$SKPOLY
 70
     0
  9
$TDCREATE
 40
2453440.3794604628
  9
$TDUPDATE
 40
2453551.9125564932
  9
$TDINDWG
 40
0.0286354977
  9
$TDUSRTIMER
 40
0.0286353819
  9
$USRTIMER
 70
     1
  9
$ANGBASE
 50
0.0
  9
$ANGDIR
 70
     0
  9
$PDMODE
 70
     0
  9
$PDSIZE
 40
0.0
  9
$PLINEWID
 40
0.0
  9
$COORDS
 70
     1
  9
$SPLFRAME
 70
     0
  9
$SPLINETYPE
 70
     6
  9
$SPLINESEGS
 70
     8
  9
$ATTDIA
 70
     0
  9
$ATTREQ
 70
     1
  9
$HANDLING
 70
-16383
  9
$HANDSEED
  5
767
  9
$SURFTAB1
 70
     6
  9
$SURFTAB2
 70
     6
  9
$SURFTYPE
 70
     6
  9
$SURFU
 70
     6
  9
$SURFV
 70
     6
  9
$UCSNAME
  2

  9
$UCSORG
 10
0.0
 20
0.0
 30
0.0
  9
$UCSXDIR
 10
1.0
 20
0.0
 30
0.0
  9
$UCSYDIR
 10
0.0
 20
1.0
 30
0.0
  9
$PUCSNAME
  2

  9
$PUCSORG
 10
0.0
 20
0.0
 30
0.0
  9
$PUCSXDIR
 10
1.0
 20
0.0
 30
0.0
  9
$PUCSYDIR
 10
0.0
 20
1.0
 30
0.0
  9
$USERI1
 70
     0
  9
$USERI2
 70
     0
  9
$USERI3
 70
     0
  9
$USERI4
 70
     0
  9
$USERI5
 70
     0
  9
$USERR1
 40
0.0
  9
$USERR2
 40
0.0
  9
$USERR3
 40
0.0
  9
$USERR4
 40
0.0
  9
$USERR5
 40
0.0
  9
$WORLDVIEW
 70
     1
  9
$SHADEDGE
 70
     3
  9
$SHADEDIF
 70
    70
  9
$TILEMODE
 70
     1
  9
$MAXACTVP
 70
    64
  9
$PLIMCHECK
 70
     0
  9
$PEXTMIN
 10
1.0000000000000000E+020
 20
1.0000000000000000E+020
 30
1.0000000000000000E+020
  9
$PEXTMAX
 10
-1.0000000000000000E+020
 20
-1.0000000000000000E+020
 30
-1.0000000000000000E+020
  9
$PLIMMIN
 10
0.0
 20
0.0
  9
$PLIMMAX
 10
420.0
 20
297.0
  9
$UNITMODE
 70
     0
  9
$VISRETAIN
 70
     1
  9
$PLINEGEN
 70
     0
  9
$PSLTSCALE
 70
     1
  0
ENDSEC
  0
SECTION
  2
TABLES
  0
TABLE
  2
VPORT
 70
     2
  0
VPORT
  2
*ACTIVE
 70
     0
 10
0.0
 20
0.0
 11
1.0
 21
1.0
 12
130.23595584491099
 22
71.997889655878453
 13
0.0
 23
0.0
 14
10.0
 24
10.0
 15
10.0
 25
10.0
 16
0.0
 26
0.0
 36
1.0
 17
0.0
 27
0.0
 37
0.0
 40
108.616728357396
 41
2.5392405063291141
 42
50.0
 43
0.0
 44
0.0
 50
0.0
 51
0.0
 71
     0
 72
   100
 73
     1
 74
     3
 75
     0
 76
     0
 77
     0
 78
     0
  0
ENDTAB
  0
TABLE
  2
LTYPE
 70
     2
  0
LTYPE
  2
CONTINUOUS
 70
     0
  3
Solid line
 72
    65
 73
     0
 40
0.0
  0
LTYPE
  2
CENTER
 70
     0
  3
Center ____ _ ____ _ ____ _ ____ _ ____ _ ____
 72
    65
 73
     4
 40
50.799999999999997
 49
31.75
 49
-6.3499999999999988
 49
6.3499999999999988
 49
-6.3499999999999988
  0
ENDTAB
  0
TABLE
  2
LAYER
 70
     4
  0
LAYER
  2
0
 70
     0
 62
     7
  6
CONTINUOUS
  0
LAYER
  2
1
 70
     0
 62
     7
  6
CENTER
  0
LAYER
  2
2
 70
     0
 62
     7
  6
CONTINUOUS
  0
LAYER
  2
DEFPOINTS
 70
     0
 62
     7
  6
CONTINUOUS
  0
ENDTAB
  0
TABLE
  2
STYLE
 70
     3
  0
STYLE
  2
STANDARD
 70
     0
 40
0.0
 41
1.0
 50
0.0
 71
     0
 42
2.5
  3
txt
  4

  0
STYLE
  2
\U+00C9L\U+00C9R_\U+00C2S\U+00C2V\U+00C2B\U+00C2N
 70
     0
 40
1.0
 41
1.0
 50
0.0
 71
     0
 42
1.0
  3
\U+00E9l\U+00E9r \U+00E2S\U+00E2V\U+00E2b\U+00E2N
  4

  0
STYLE
  2

 70
     1
 40
0.0
 41
1.0
 50
0.0
 71
     0
 42
2.5
  3
ltypeshp.shx
  4

  0
ENDTAB
  0
TABLE
  2
VIEW
 70
     0
  0
ENDTAB
  0
TABLE
  2
UCS
 70
     0
  0
ENDTAB
  0
TABLE
  2
APPID
 70
     1
  0
APPID
  2
ACAD
 70
     0
  0
ENDTAB
  0
TABLE
  2
DIMSTYLE
 70
     2
  0
DIMSTYLE
  2
ISO-25
 70
     0
  3

  4

  5

  6

  7

 40
1.0
 41
2.5
 42
0.625
 43
3.75
 44
1.25
 45
0.0
 46
0.0
 47
0.0
 48
0.0
140
2.5
141
2.5
142
0.0
143
0.03937007874016
144
1.0
145
0.0
146
1.0
147
0.625
 71
     0
 72
     0
 73
     0
 74
     0
 75
     0
 76
     0
 77
     1
 78
     8
170
     0
171
     3
172
     1
173
     0
174
     0
175
     0
176
     0
177
     0
178
     0
  0
DIMSTYLE
  2
STANDARD
 70
     0
  3

  4

  5

  6

  7

 40
1.0
 41
0.18
 42
0.0625
 43
0.38
 44
0.18
 45
0.0
 46
0.0
 47
0.0
 48
0.0
140
0.18
141
0.09
142
0.0
143
25.399999999999999
144
1.0
145
0.0
146
1.0
147
0.09
 71
     0
 72
     0
 73
     1
 74
     1
 75
     0
 76
     0
 77
     0
 78
     0
170
     0
171
     2
172
     0
173
     0
174
     0
175
     0
176
     0
177
     0
178
     0
  0
ENDTAB
  0
ENDSEC
  0
SECTION
  2
BLOCKS
  0
BLOCK
  8
0
  2
$MODEL_SPACE
 70
     0
 10
0.0
 20
0.0
 30
0.0
  3
$MODEL_SPACE
  1

  0
ENDBLK
  5
21
  8
0
  0
BLOCK
 67
     1
  8
0
  2
$PAPER_SPACE
 70
     0
 10
0.0
 20
0.0
 30
0.0
  3
$PAPER_SPACE
  1

  0
ENDBLK
  5
1D
 67
     1
  8
0
  0
BLOCK
  8
0
  2
*D1
 70
     1
 10
0.0
 20
0.0
 30
0.0
  3
*D1
  1

  0
LINE
  5
6D1
  8
0
 62
     0
 10
84.159782108465166
 20
91.913101606220678
 30
0.0
 11
84.159782108465166
 21
102.84901301738719
 31
0.0
  0
LINE
  5
6D2
  8
0
 62
     0
 10
92.15978210846518
 20
91.913101606220678
 30
0.0
 11
92.15978210846518
 21
102.84901301738719
 31
0.0
  0
LINE
  5
6D3
  8
0
 62
     0
 10
86.659782108465166
 20
101.59901301738719
 30
0.0
 11
89.65978210846518
 21
101.59901301738719
 31
0.0
  0
SOLID
  5
6D4
  8
0
 62
     0
 10
86.659782108465166
 20
102.01567968405379
 30
0.0
 11
86.659782108465166
 21
101.18234635072049
 31
0.0
 12
84.159782108465166
 22
101.59901301738719
 32
0.0
 13
84.159782108465166
 23
101.59901301738719
 33
0.0
  0
SOLID
  5
6D5
  8
0
 62
     0
 10
89.65978210846518
 20
102.01567968405379
 30
0.0
 11
89.65978210846518
 21
101.18234635072049
 31
0.0
 12
92.15978210846518
 22
101.59901301738719
 32
0.0
 13
92.15978210846518
 23
101.59901301738719
 33
0.0
  0
INSERT
  5
6D6
  8
0
  2
*U12
 10
0.0
 20
0.0
 30
0.0
  0
POINT
  5
6D7
  8
DEFPOINTS
 62
     0
 10
84.159782108465166
 20
91.288101606220678
 30
0.0
  0
POINT
  5
6D8
  8
DEFPOINTS
 62
     0
 10
92.15978210846518
 20
91.288101606220678
 30
0.0
  0
POINT
  5
6D9
  8
DEFPOINTS
 62
     0
 10
92.15978210846518
 20
101.59901301738719
 30
0.0
  0
ENDBLK
  5
646
  8
0
  0
BLOCK
  8
0
  2
*D2
 70
     1
 10
0.0
 20
0.0
 30
0.0
  3
*D2
  1

  0
LINE
  5
656
  8
0
 62
     0
 10
97.78478210846518
 20
91.288101606220678
 30
0.0
 11
117.42911873651531
 21
91.288101606220678
 31
0.0
  0
LINE
  5
657
  8
0
 62
     0
 10
97.78478210846518
 20
81.288101606220678
 30
0.0
 11
117.42911873651531
 21
81.288101606220678
 31
0.0
  0
LINE
  5
658
  8
0
 62
     0
 10
116.17911873651531
 20
88.788101606220678
 30
0.0
 11
116.17911873651531
 21
83.788101606220678
 31
0.0
  0
SOLID
  5
659
  8
0
 62
     0
 10
115.76245206984861
 20
88.788101606220678
 30
0.0
 11
116.59578540318191
 21
88.788101606220678
 31
0.0
 12
116.17911873651531
 22
91.288101606220678
 32
0.0
 13
116.17911873651531
 23
91.288101606220678
 33
0.0
  0
SOLID
  5
65A
  8
0
 62
     0
 10
115.76245206984861
 20
83.788101606220678
 30
0.0
 11
116.59578540318191
 21
83.788101606220678
 31
0.0
 12
116.17911873651531
 22
81.288101606220678
 32
0.0
 13
116.17911873651531
 23
81.288101606220678
 33
0.0
  0
TEXT
  5
65B
  8
0
 62
     0
 10
115.55411873651521
 20
84.829768272887364
 30
0.0
 40
2.5
  1
10
 50
90.0
  0
POINT
  5
65C
  8
DEFPOINTS
 62
     0
 10
97.15978210846518
 20
91.288101606220678
 30
0.0
  0
POINT
  5
65D
  8
DEFPOINTS
 62
     0
 10
97.15978210846518
 20
81.288101606220678
 30
0.0
  0
POINT
  5
65E
  8
DEFPOINTS
 62
     0
 10
116.17911873651531
 20
81.288101606220678
 30
0.0
  0
ENDBLK
  5
660
  8
0
  0
BLOCK
  8
0
  2
*D3
 70
     1
 10
0.0
 20
0.0
 30
0.0
  3
*D3
  1

  0
LINE
  5
663
  8
0
 62
     0
 10
97.784782108465166
 20
91.288101606220664
 30
0.0
 11
123.2271465777546
 21
91.288101606220664
 31
0.0
  0
LINE
  5
664
  8
0
 62
     0
 10
96.28478210846518
 20
78.288101606220664
 30
0.0
 11
123.2271465777546
 21
78.288101606220664
 31
0.0
  0
LINE
  5
665
  8
0
 62
     0
 10
121.9771465777546
 20
88.788101606220664
 30
0.0
 11
121.9771465777546
 21
80.788101606220664
 31
0.0
  0
SOLID
  5
666
  8
0
 62
     0
 10
121.5604799110879
 20
88.788101606220664
 30
0.0
 11
122.3938132444213
 21
88.788101606220664
 31
0.0
 12
121.9771465777546
 22
91.288101606220664
 32
0.0
 13
121.9771465777546
 23
91.288101606220664
 33
0.0
  0
SOLID
  5
667
  8
0
 62
     0
 10
121.5604799110879
 20
80.788101606220664
 30
0.0
 11
122.3938132444213
 21
80.788101606220664
 31
0.0
 12
121.9771465777546
 22
78.288101606220664
 32
0.0
 13
121.9771465777546
 23
78.288101606220664
 33
0.0
  0
TEXT
  5
668
  8
0
 62
     0
 10
121.3521465777546
 20
83.121434939554007
 30
0.0
 40
2.5
  1
13
 50
90.0
  0
POINT
  5
669
  8
DEFPOINTS
 62
     0
 10
97.159782108465166
 20
91.288101606220664
 30
0.0
  0
POINT
  5
66A
  8
DEFPOINTS
 62
     0
 10
95.65978210846518
 20
78.288101606220678
 30
0.0
  0
POINT
  5
66B
  8
DEFPOINTS
 62
     0
 10
121.9771465777546
 20
78.288101606220664
 30
0.0
  0
ENDBLK
  5
66D
  8
0
  0
BLOCK
  8
0
  2
*D4
 70
     1
 10
0.0
 20
0.0
 30
0.0
  3
*D4
  1

  0
LINE
  5
670
  8
0
 62
     0
 10
97.78478210846518
 20
91.288101606220678
 30
0.0
 11
129.18187769461889
 21
91.288101606220678
 31
0.0
  0
LINE
  5
671
  8
0
 62
     0
 10
104.78478210846509
 20
53.788101606220678
 30
0.0
 11
129.18187769461889
 21
53.788101606220671
 31
0.0
  0
LINE
  5
672
  8
0
 62
     0
 10
127.9318776946189
 20
88.788101606220678
 30
0.0
 11
127.9318776946189
 21
56.288101606220671
 31
0.0
  0
SOLID
  5
673
  8
0
 62
     0
 10
127.5152110279522
 20
88.788101606220678
 30
0.0
 11
128.3485443612856
 21
88.788101606220678
 31
0.0
 12
127.9318776946189
 22
91.288101606220678
 32
0.0
 13
127.9318776946189
 23
91.288101606220678
 33
0.0
  0
SOLID
  5
674
  8
0
 62
     0
 10
127.5152110279522
 20
56.288101606220671
 30
0.0
 11
128.34854436128549
 21
56.288101606220671
 31
0.0
 12
127.9318776946189
 22
53.788101606220671
 32
0.0
 13
127.9318776946189
 23
53.788101606220671
 33
0.0
  0
TEXT
  5
675
  8
0
 62
     0
 10
127.3068776946189
 20
68.788101606220692
 30
0.0
 40
2.5
  1
37.5
 50
90.0
  0
POINT
  5
676
  8
DEFPOINTS
 62
     0
 10
97.15978210846518
 20
91.288101606220678
 30
0.0
  0
POINT
  5
677
  8
DEFPOINTS
 62
     0
 10
104.15978210846509
 20
53.788101606220678
 30
0.0
  0
POINT
  5
678
  8
DEFPOINTS
 62
     0
 10
127.9318776946189
 20
53.788101606220671
 30
0.0
  0
ENDBLK
  5
67A
  8
0
  0
BLOCK
  8
0
  2
*D5
 70
     1
 10
0.0
 20
0.0
 30
0.0
  3
*D5
  1

  0
LINE
  5
67D
  8
0
 62
     0
 10
72.026741221953927
 20
53.788101606220671
 30
0.0
 11
59.299394440832089
 21
53.788101606220671
 31
0.0
  0
LINE
  5
67E
  8
0
 62
     0
 10
74.273812980948449
 20
74.288101606220678
 30
0.0
 11
59.299394440832089
 21
74.288101606220678
 31
0.0
  0
LINE
  5
67F
  8
0
 62
     0
 10
60.549394440832089
 20
56.288101606220671
 30
0.0
 11
60.549394440832089
 21
71.788101606220678
 31
0.0
  0
SOLID
  5
680
  8
0
 62
     0
 10
60.132727774165417
 20
56.288101606220671
 30
0.0
 11
60.966061107498753
 21
56.288101606220671
 31
0.0
 12
60.549394440832089
 22
53.788101606220671
 32
0.0
 13
60.549394440832089
 23
53.788101606220671
 33
0.0
  0
SOLID
  5
681
  8
0
 62
     0
 10
60.132727774165417
 20
71.788101606220678
 30
0.0
 11
60.966061107498753
 21
71.788101606220678
 31
0.0
 12
60.549394440832089
 22
74.288101606220678
 32
0.0
 13
60.549394440832089
 23
74.288101606220678
 33
0.0
  0
TEXT
  5
682
  8
0
 62
     0
 10
59.924394440832081
 20
60.496434939554028
 30
0.0
 40
2.5
  1
20.5
 50
90.0
  0
POINT
  5
683
  8
DEFPOINTS
 62
     0
 10
72.651741221953927
 20
53.788101606220671
 30
0.0
  0
POINT
  5
684
  8
DEFPOINTS
 62
     0
 10
74.898812980948449
 20
74.288101606220678
 30
0.0
  0
POINT
  5
685
  8
DEFPOINTS
 62
     0
 10
60.549394440832089
 20
74.288101606220678
 30
0.0
  0
ENDBLK
  5
687
  8
0
  0
BLOCK
  8
0
  2
*D6
 70
     1
 10
0.0
 20
0.0
 30
0.0
  3
*D6
  1

  0
LINE
  5
6C8
  8
0
 62
     0
 10
80.65978210846518
 20
78.913101606220678
 30
0.0
 11
80.65978210846518
 21
108.4135285884163
 31
0.0
  0
LINE
  5
6C9
  8
0
 62
     0
 10
95.65978210846518
 20
78.913101606220678
 30
0.0
 11
95.65978210846518
 21
108.4135285884163
 31
0.0
  0
LINE
  5
6CA
  8
0
 62
     0
 10
83.15978210846518
 20
107.1635285884163
 30
0.0
 11
93.15978210846518
 21
107.1635285884163
 31
0.0
  0
SOLID
  5
6CB
  8
0
 62
     0
 10
83.15978210846518
 20
107.580195255083
 30
0.0
 11
83.15978210846518
 21
106.7468619217496
 31
0.0
 12
80.65978210846518
 22
107.1635285884163
 32
0.0
 13
80.65978210846518
 23
107.1635285884163
 33
0.0
  0
SOLID
  5
6CC
  8
0
 62
     0
 10
93.15978210846518
 20
107.580195255083
 30
0.0
 11
93.15978210846518
 21
106.7468619217496
 31
0.0
 12
95.65978210846518
 22
107.1635285884163
 32
0.0
 13
95.65978210846518
 23
107.1635285884163
 33
0.0
  0
INSERT
  5
6CD
  8
0
  2
*U11
 10
0.0
 20
0.0
 30
0.0
  0
POINT
  5
6CE
  8
DEFPOINTS
 62
     0
 10
80.65978210846518
 20
78.288101606220678
 30
0.0
  0
POINT
  5
6CF
  8
DEFPOINTS
 62
     0
 10
95.65978210846518
 20
78.288101606220678
 30
0.0
  0
POINT
  5
6D0
  8
DEFPOINTS
 62
     0
 10
95.65978210846518
 20
107.1635285884163
 30
0.0
  0
ENDBLK
  5
695
  8
0
  0
BLOCK
  8
0
  2
*D7
 70
     1
 10
0.0
 20
0.0
 30
0.0
  3
*D7
  1

  0
LINE
  5
6BF
  8
0
 62
     0
 10
79.159782108465166
 20
91.913101606220664
 30
0.0
 11
79.159782108465166
 21
113.88601881412271
 31
0.0
  0
LINE
  5
6C0
  8
0
 62
     0
 10
97.159782108465166
 20
91.913101606220664
 30
0.0
 11
97.159782108465166
 21
113.88601881412271
 31
0.0
  0
LINE
  5
6C1
  8
0
 62
     0
 10
81.659782108465166
 20
112.63601881412271
 30
0.0
 11
94.659782108465166
 21
112.63601881412271
 31
0.0
  0
SOLID
  5
6C2
  8
0
 62
     0
 10
81.659782108465166
 20
113.05268548078941
 30
0.0
 11
81.659782108465166
 21
112.21935214745599
 31
0.0
 12
79.159782108465166
 22
112.63601881412271
 32
0.0
 13
79.159782108465166
 23
112.63601881412271
 33
0.0
  0
SOLID
  5
6C3
  8
0
 62
     0
 10
94.659782108465166
 20
113.05268548078941
 30
0.0
 11
94.659782108465166
 21
112.21935214745599
 31
0.0
 12
97.159782108465166
 22
112.63601881412271
 32
0.0
 13
97.159782108465166
 23
112.63601881412271
 33
0.0
  0
INSERT
  5
6C4
  8
0
  2
*U10
 10
0.0
 20
0.0
 30
0.0
  0
POINT
  5
6C5
  8
DEFPOINTS
 62
     0
 10
79.159782108465166
 20
91.288101606220664
 30
0.0
  0
POINT
  5
6C6
  8
DEFPOINTS
 62
     0
 10
97.159782108465166
 20
91.288101606220664
 30
0.0
  0
POINT
  5
6C7
  8
DEFPOINTS
 62
     0
 10
97.159782108465166
 20
112.63601881412271
 30
0.0
  0
ENDBLK
  5
6A2
  8
0
  0
BLOCK
  8
0
  2
*D8
 70
     1
 10
0.0
 20
0.0
 30
0.0
  3
*D8
  1

  0
LINE
  5
6DA
  8
0
 62
     0
 10
80.159782108465166
 20
56.740433246845662
 30
0.0
 11
80.159782108465166
 21
44.264768856624897
 31
0.0
  0
LINE
  5
6DB
  8
0
 62
     0
 10
96.159782108465194
 20
56.740433246845662
 30
0.0
 11
96.159782108465194
 21
44.264768856624897
 31
0.0
  0
LINE
  5
6DC
  8
0
 62
     0
 10
82.659782108465166
 20
45.514768856624897
 30
0.0
 11
93.659782108465194
 21
45.514768856624897
 31
0.0
  0
SOLID
  5
6DD
  8
0
 62
     0
 10
82.659782108465166
 20
45.931435523291562
 30
0.0
 11
82.659782108465166
 21
45.098102189958233
 31
0.0
 12
80.159782108465166
 22
45.514768856624897
 32
0.0
 13
80.159782108465166
 23
45.514768856624897
 33
0.0
  0
SOLID
  5
6DE
  8
0
 62
     0
 10
93.659782108465194
 20
45.931435523291562
 30
0.0
 11
93.659782108465194
 21
45.098102189958233
 31
0.0
 12
96.159782108465194
 22
45.514768856624897
 32
0.0
 13
96.159782108465194
 23
45.514768856624897
 33
0.0
  0
INSERT
  5
6DF
  8
0
  2
*U13
 10
0.0
 20
0.0
 30
0.0
  0
POINT
  5
6E0
  8
DEFPOINTS
 62
     0
 10
80.159782108465166
 20
57.365433246845662
 30
0.0
  0
POINT
  5
6E1
  8
DEFPOINTS
 62
     0
 10
96.159782108465194
 20
57.365433246845662
 30
0.0
  0
POINT
  5
6E2
  8
DEFPOINTS
 62
     0
 10
96.159782108465194
 20
45.514768856624897
 30
0.0
  0
ENDBLK
  5
6B0
  8
0
  0
BLOCK
  8
0
  2
*D9
 70
     1
 10
0.0
 20
0.0
 30
0.0
  3
*D9
  1

  0
LINE
  5
6F5
  8
0
 62
     0
 10
72.15978210846518
 20
53.163101606220678
 30
0.0
 11
72.15978210846518
 21
39.781567416120453
 31
0.0
  0
LINE
  5
6F6
  8
0
 62
     0
 10
104.15978210846509
 20
53.163101606220678
 30
0.0
 11
104.15978210846509
 21
39.781567416120453
 31
0.0
  0
LINE
  5
6F7
  8
0
 62
     0
 10
74.65978210846518
 20
41.031567416120453
 30
0.0
 11
101.65978210846509
 21
41.031567416120453
 31
0.0
  0
SOLID
  5
6F8
  8
0
 62
     0
 10
74.65978210846518
 20
41.44823408278711
 30
0.0
 11
74.65978210846518
 21
40.614900749453781
 31
0.0
 12
72.15978210846518
 22
41.031567416120453
 32
0.0
 13
72.15978210846518
 23
41.031567416120453
 33
0.0
  0
SOLID
  5
6F9
  8
0
 62
     0
 10
101.65978210846509
 20
41.44823408278711
 30
0.0
 11
101.65978210846509
 21
40.614900749453781
 31
0.0
 12
104.15978210846509
 22
41.031567416120453
 32
0.0
 13
104.15978210846509
 23
41.031567416120453
 33
0.0
  0
INSERT
  5
6FA
  8
0
  2
*U14
 10
0.0
 20
0.0
 30
0.0
  0
POINT
  5
6FB
  8
DEFPOINTS
 62
     0
 10
72.15978210846518
 20
53.788101606220678
 30
0.0
  0
POINT
  5
6FC
  8
DEFPOINTS
 62
     0
 10
104.15978210846509
 20
53.788101606220678
 30
0.0
  0
POINT
  5
6FD
  8
DEFPOINTS
 62
     0
 10
104.15978210846509
 20
41.031567416120453
 30
0.0
  0
ENDBLK
  5
6BD
  8
0
  0
BLOCK
  8
0
  2
*U10
 70
     1
 10
0.0
 20
0.0
 30
0.0
  3
*U10
  1

  0
TEXT
  5
74F
  8
0
 62
     0
 10
85.243115441798494
 20
113.26101881412271
 30
0.0
 40
2.5
  1
\U+2205
  0
TEXT
  5
750
  8
0
 62
     0
 10
87.743115441798494
 20
113.26101881412271
 30
0.0
 40
2.5
  1
18
  0
ENDBLK
  5
752
  8
0
  0
BLOCK
  8
0
  2
*U11
 70
     1
 10
0.0
 20
0.0
 30
0.0
  3
*U11
  1

  0
TEXT
  5
754
  8
0
 62
     0
 10
85.243115441798494
 20
107.7885285884163
 30
0.0
 40
2.5
  1
\U+2205
  0
TEXT
  5
755
  8
0
 62
     0
 10
87.743115441798494
 20
107.7885285884163
 30
0.0
 40
2.5
  1
15
  0
ENDBLK
  5
757
  8
0
  0
BLOCK
  8
0
  2
*U12
 70
     1
 10
0.0
 20
0.0
 30
0.0
  3
*U12
  1

  0
TEXT
  5
759
  8
0
 62
     0
 10
86.076448775131865
 20
102.22401301738719
 30
0.0
 40
2.5
  1
\U+2205
  0
TEXT
  5
75A
  8
0
 62
     0
 10
88.576448775131865
 20
102.22401301738719
 30
0.0
 40
2.5
  1
8
  0
ENDBLK
  5
75C
  8
0
  0
BLOCK
  8
0
  2
*U13
 70
     1
 10
0.0
 20
0.0
 30
0.0
  3
*U13
  1

  0
TEXT
  5
75E
  8
0
 62
     0
 10
85.243115441798494
 20
46.139768856624897
 30
0.0
 40
2.5
  1
\U+2205
  0
TEXT
  5
75F
  8
0
 62
     0
 10
87.743115441798494
 20
46.139768856624897
 30
0.0
 40
2.5
  1
16
  0
ENDBLK
  5
761
  8
0
  0
BLOCK
  8
0
  2
*U14
 70
     1
 10
0.0
 20
0.0
 30
0.0
  3
*U14
  1

  0
TEXT
  5
763
  8
0
 62
     0
 10
84.826448775131865
 20
41.656567416120453
 30
0.0
 40
2.5
  1
\U+2205
  0
TEXT
  5
764
  8
0
 62
     0
 10
87.326448775131865
 20
41.656567416120453
 30
0.0
 40
2.5
  1
32
  0
ENDBLK
  5
766
  8
0
  0
ENDSEC
  0
SECTION
  2
ENTITIES
  0
POLYLINE
  5
E9
  8
0
 66
     1
 10
0.0
 20
0.0
 30
0.0
 39
5.0
  0
VERTEX
  5
742
  8
0
 10
80.699682108465183
 20
66.975401606220672
 30
0.0
  0
VERTEX
  5
743
  8
0
 10
88.15978210846518
 20
66.975401606220672
 30
0.0
  0
SEQEND
  5
744
  8
0
  0
POLYLINE
  5
EA
  8
0
 66
     1
 10
0.0
 20
0.0
 30
0.0
 39
5.0
  0
VERTEX
  5
745
  8
0
 10
74.112682108465194
 20
62.561101606220682
 30
0.0
  0
VERTEX
  5
746
  8
0
 10
88.15978210846518
 20
62.561101606220682
 30
0.0
  0
SEQEND
  5
747
  8
0
  0
TEXT
  5
F0
  8
2
 10
69.016794112212963
 20
28.07517988342833
 30
0.0
 40
2.5399440000000002
  1
No. 21.032.075._
 51
-0.0000015352344868
  7
\U+00C9L\U+00C9R_\U+00C2S\U+00C2V\U+00C2B\U+00C2N
  0
LINE
  5
1A7
  8
0
 39
5.0
 10
72.651741221953927
 20
53.788101606220671
 30
0.0
 11
72.854282108465185
 21
54.009601606220677
 31
0.0
  0
LINE
  5
1A8
  8
0
 39
5.0
 10
72.854282108465185
 20
54.009601606220677
 30
0.0
 11
73.133282108465181
 21
54.258801606220672
 31
0.0
  0
LINE
  5
1A9
  8
0
 39
5.0
 10
73.133282108465181
 20
54.258801606220672
 30
0.0
 11
73.449682108465183
 21
54.496301606220683
 31
0.0
  0
LINE
  5
1AA
  8
0
 39
5.0
 10
73.449682108465183
 20
54.496301606220683
 30
0.0
 11
73.801682108465187
 21
54.723001606220677
 31
0.0
  0
LINE
  5
1AB
  8
0
 39
5.0
 10
73.801682108465187
 20
54.723001606220677
 30
0.0
 11
74.186882108465184
 21
54.940001606220683
 31
0.0
  0
LINE
  5
1AC
  8
0
 39
5.0
 10
74.186882108465184
 20
54.940001606220683
 30
0.0
 11
74.353582108465176
 21
55.148001606220667
 31
0.0
  0
LINE
  5
1AD
  8
0
 39
5.0
 10
74.353582108465176
 20
55.148001606220667
 30
0.0
 11
74.799282108465192
 21
55.347901606220667
 31
0.0
  0
LINE
  5
1AE
  8
0
 39
5.0
 10
74.799282108465192
 20
55.347901606220667
 30
0.0
 11
75.27238210846518
 21
55.540401606220691
 31
0.0
  0
LINE
  5
1AF
  8
0
 39
5.0
 10
75.27238210846518
 20
55.540401606220691
 30
0.0
 11
75.770382108465185
 21
55.726901606220679
 31
0.0
  0
LINE
  5
1B0
  8
0
 39
5.0
 10
75.770382108465185
 20
55.726901606220679
 30
0.0
 11
76.291482108465189
 21
55.907801606220673
 31
0.0
  0
LINE
  5
1B1
  8
0
 39
5.0
 10
76.291482108465189
 20
55.907801606220673
 30
0.0
 11
76.833582108465194
 21
56.08430160622067
 31
0.0
  0
LINE
  5
1B2
  8
0
 39
5.0
 10
76.833582108465194
 20
56.08430160622067
 30
0.0
 11
77.394582108465187
 21
56.257001606220683
 31
0.0
  0
LINE
  5
1B3
  8
0
 39
5.0
 10
77.394582108465187
 20
56.257001606220683
 30
0.0
 11
77.972282108465194
 21
56.427101606220667
 31
0.0
  0
LINE
  5
1B4
  8
0
 39
5.0
 10
77.972282108465194
 20
56.427101606220667
 30
0.0
 11
78.564982108465173
 21
56.595201606220691
 31
0.0
  0
LINE
  5
1B5
  8
0
 39
5.0
 10
78.564982108465173
 20
56.595201606220691
 30
0.0
 11
79.170282108465173
 21
56.762401606220678
 31
0.0
  0
LINE
  5
1B6
  8
0
 39
5.0
 10
79.170282108465173
 20
56.762401606220678
 30
0.0
 11
79.78638210846519
 21
56.929301606220683
 31
0.0
  0
LINE
  5
1B7
  8
0
 39
5.0
 10
79.78638210846519
 20
56.929301606220683
 30
0.0
 11
79.78638210846519
 21
56.929301606220683
 31
0.0
  0
LINE
  5
1B8
  8
0
 39
5.0
 10
79.78638210846519
 20
56.929301606220683
 30
0.0
 11
79.903282108465163
 21
57.009801606220677
 31
0.0
  0
LINE
  5
1B9
  8
0
 39
5.0
 10
79.903282108465163
 20
57.009801606220677
 30
0.0
 11
80.003982108465166
 21
57.109601606220679
 31
0.0
  0
LINE
  5
1BA
  8
0
 39
5.0
 10
80.003982108465166
 20
57.109601606220679
 30
0.0
 11
80.088182108465176
 21
57.225801606220671
 31
0.0
  0
LINE
  5
1BB
  8
0
 39
5.0
 10
80.088182108465176
 20
57.225801606220671
 30
0.0
 11
80.156082108465185
 21
57.355301606220678
 31
0.0
  0
LINE
  5
1BC
  8
0
 39
5.0
 10
80.156082108465185
 20
57.355301606220678
 30
0.0
 11
80.159782108465166
 21
57.365433246845662
 31
0.0
  0
LINE
  5
1C3
  8
0
 39
5.0
 10
80.159782108465166
 20
58.407534319398977
 30
0.0
 11
80.103182108465177
 21
58.522401606220683
 31
0.0
  0
LINE
  5
1C4
  8
0
 39
5.0
 10
80.103182108465177
 20
58.522401606220683
 30
0.0
 11
80.021782108465189
 21
58.640401606220671
 31
0.0
  0
LINE
  5
1C5
  8
0
 39
5.0
 10
80.021782108465189
 20
58.640401606220671
 30
0.0
 11
79.923882108465179
 21
58.742101606220672
 31
0.0
  0
LINE
  5
1C6
  8
0
 39
5.0
 10
79.923882108465179
 20
58.742101606220672
 30
0.0
 11
79.809282108465183
 21
58.824901606220678
 31
0.0
  0
LINE
  5
1C7
  8
0
 39
5.0
 10
79.809282108465183
 20
58.824901606220678
 30
0.0
 11
79.677982108465187
 21
58.885701606220678
 31
0.0
  0
LINE
  5
1C8
  8
0
 39
5.0
 10
79.677982108465187
 20
58.885701606220678
 30
0.0
 11
74.860182108465182
 21
61.652201606220672
 31
0.0
  0
LINE
  5
1C9
  8
0
 39
5.0
 10
74.860182108465182
 20
61.652201606220672
 30
0.0
 11
74.860182108465182
 21
61.652201606220672
 31
0.0
  0
LINE
  5
1CA
  8
0
 39
5.0
 10
74.860182108465182
 20
61.652201606220672
 30
0.0
 11
74.581782108465191
 21
61.742201606220668
 31
0.0
  0
LINE
  5
1CB
  8
0
 39
5.0
 10
74.581782108465191
 20
61.742201606220668
 30
0.0
 11
74.340282108465189
 21
61.836901606220671
 31
0.0
  0
LINE
  5
1CC
  8
0
 39
5.0
 10
74.340282108465189
 20
61.836901606220671
 30
0.0
 11
74.384982108465181
 21
61.935601606220672
 31
0.0
  0
LINE
  5
1CD
  8
0
 39
5.0
 10
74.384982108465181
 20
61.935601606220672
 30
0.0
 11
74.215282108465189
 21
62.037401606220683
 31
0.0
  0
LINE
  5
1CE
  8
0
 39
5.0
 10
74.215282108465189
 20
62.037401606220683
 30
0.0
 11
74.080382108465173
 21
62.141801606220682
 31
0.0
  0
LINE
  5
1CF
  8
0
 39
5.0
 10
74.080382108465173
 20
62.141801606220682
 30
0.0
 11
73.979782108465187
 21
62.247801606220669
 31
0.0
  0
LINE
  5
1D0
  8
0
 39
5.0
 10
73.979782108465187
 20
62.247801606220669
 30
0.0
 11
73.91278210846518
 21
62.354801606220668
 31
0.0
  0
LINE
  5
1D1
  8
0
 39
5.0
 10
73.91278210846518
 20
62.354801606220668
 30
0.0
 11
73.878982108465181
 21
62.461801606220668
 31
0.0
  0
LINE
  5
1D2
  8
0
 39
5.0
 10
73.878982108465181
 20
62.461801606220668
 30
0.0
 11
73.877082108465174
 21
62.568401606220682
 31
0.0
  0
LINE
  5
1D3
  8
0
 39
5.0
 10
73.877082108465174
 20
62.568401606220682
 30
0.0
 11
73.907182108465193
 21
62.673501606220682
 31
0.0
  0
LINE
  5
1D4
  8
0
 39
5.0
 10
73.907182108465193
 20
62.673501606220682
 30
0.0
 11
73.968082108465183
 21
62.77660160622068
 31
0.0
  0
LINE
  5
1D5
  8
0
 39
5.0
 10
73.968082108465183
 20
62.77660160622068
 30
0.0
 11
74.059682108465182
 21
62.876701606220671
 31
0.0
  0
LINE
  5
1D6
  8
0
 39
5.0
 10
74.059682108465182
 20
62.876701606220671
 30
0.0
 11
74.180782108465181
 21
62.973301606220673
 31
0.0
  0
LINE
  5
1D7
  8
0
 39
5.0
 10
74.180782108465181
 20
62.973301606220673
 30
0.0
 11
74.331082108465182
 21
63.065401606220668
 31
0.0
  0
LINE
  5
1D8
  8
0
 39
5.0
 10
74.331082108465182
 20
63.065401606220668
 30
0.0
 11
74.259782108465188
 21
63.152301606220682
 31
0.0
  0
LINE
  5
1D9
  8
0
 39
5.0
 10
74.259782108465188
 20
63.152301606220682
 30
0.0
 11
74.466382108465183
 21
63.233101606220671
 31
0.0
  0
LINE
  5
1DA
  8
0
 39
5.0
 10
74.466382108465183
 20
63.233101606220671
 30
0.0
 11
80.076382108465182
 21
66.197201606220673
 31
0.0
  0
LINE
  5
1DB
  8
0
 39
5.0
 10
80.076382108465182
 20
66.197201606220673
 30
0.0
 11
80.076382108465182
 21
66.197201606220673
 31
0.0
  0
LINE
  5
1DC
  8
0
 39
5.0
 10
80.076382108465182
 20
66.197201606220673
 30
0.0
 11
80.184882108465175
 21
66.238601606220683
 31
0.0
  0
LINE
  5
1DD
  8
0
 39
5.0
 10
80.184882108465175
 20
66.238601606220683
 30
0.0
 11
80.287082108465185
 21
66.299301606220681
 31
0.0
  0
LINE
  5
1DE
  8
0
 39
5.0
 10
80.287082108465185
 20
66.299301606220681
 30
0.0
 11
80.381082108465179
 21
66.377401606220673
 31
0.0
  0
LINE
  5
1DF
  8
0
 39
5.0
 10
80.381082108465179
 20
66.377401606220673
 30
0.0
 11
80.465382108465178
 21
66.470401606220676
 31
0.0
  0
LINE
  5
1E0
  8
0
 39
5.0
 10
80.465382108465178
 20
66.470401606220676
 30
0.0
 11
80.537882108465169
 21
66.576501606220674
 31
0.0
  0
LINE
  5
1E1
  8
0
 39
5.0
 10
80.537882108465169
 20
66.576501606220674
 30
0.0
 11
80.597282108465194
 21
66.693301606220672
 31
0.0
  0
LINE
  5
1E2
  8
0
 39
5.0
 10
80.597282108465194
 20
66.693301606220672
 30
0.0
 11
80.641582108465187
 21
66.818701606220685
 31
0.0
  0
LINE
  5
1E3
  8
0
 39
5.0
 10
80.641582108465187
 20
66.818701606220685
 30
0.0
 11
80.669182108465193
 21
66.95040160622068
 31
0.0
  0
LINE
  5
1E4
  8
0
 39
5.0
 10
80.669182108465193
 20
66.95040160622068
 30
0.0
 11
80.678082108465176
 21
67.086601606220682
 31
0.0
  0
LINE
  5
1E5
  8
0
 39
5.0
 10
80.678082108465176
 20
67.086601606220682
 30
0.0
 11
80.666782108465185
 21
67.22480160622068
 31
0.0
  0
LINE
  5
1E6
  8
0
 39
5.0
 10
80.666782108465185
 20
67.22480160622068
 30
0.0
 11
80.633482108465174
 21
67.362901606220674
 31
0.0
  0
LINE
  5
1E7
  8
0
 39
5.0
 10
80.633482108465174
 20
67.362901606220674
 30
0.0
 11
80.576582108465175
 21
67.498601606220674
 31
0.0
  0
LINE
  5
1E8
  8
0
 39
5.0
 10
80.576582108465175
 20
67.498601606220674
 30
0.0
 11
80.493982108465175
 21
67.630101606220677
 31
0.0
  0
LINE
  5
1E9
  8
0
 39
5.0
 10
80.493982108465175
 20
67.630101606220677
 30
0.0
 11
80.384382108465175
 21
67.754801606220681
 31
0.0
  0
LINE
  5
1EA
  8
0
 39
5.0
 10
80.384382108465175
 20
67.754801606220681
 30
0.0
 11
80.245682108465175
 21
67.870901606220684
 31
0.0
  0
LINE
  5
1EB
  8
0
 39
5.0
 10
80.245682108465175
 20
67.870901606220684
 30
0.0
 11
80.076482108465186
 21
67.975801606220685
 31
0.0
  0
LINE
  5
1EC
  8
0
 39
5.0
 10
80.076482108465186
 20
67.975801606220685
 30
0.0
 11
73.954982108465174
 21
72.581301606220677
 31
0.0
  0
LINE
  5
1ED
  8
0
 39
5.0
 10
73.954982108465174
 20
72.581301606220677
 30
0.0
 11
73.954982108465174
 21
72.581301606220677
 31
0.0
  0
LINE
  5
1EE
  8
0
 39
5.0
 10
73.954982108465174
 20
72.581301606220677
 30
0.0
 11
73.800282108465183
 21
72.653501606220672
 31
0.0
  0
LINE
  5
1EF
  8
0
 39
5.0
 10
73.800282108465183
 20
72.653501606220672
 30
0.0
 11
73.667282108465173
 21
72.749501606220676
 31
0.0
  0
LINE
  5
1F0
  8
0
 39
5.0
 10
73.667282108465173
 20
72.749501606220676
 30
0.0
 11
73.558182108465175
 21
72.865501606220676
 31
0.0
  0
LINE
  5
1F1
  8
0
 39
5.0
 10
73.558182108465175
 20
72.865501606220676
 30
0.0
 11
73.475582108465176
 21
72.997101606220653
 31
0.0
  0
LINE
  5
1F2
  8
0
 39
5.0
 10
73.475582108465176
 20
72.997101606220653
 30
0.0
 11
73.421282108465164
 21
73.140501606220667
 31
0.0
  0
LINE
  5
1F3
  8
0
 39
5.0
 10
73.421282108465164
 20
73.140501606220667
 30
0.0
 11
73.397982108465172
 21
73.291101606220664
 31
0.0
  0
LINE
  5
1F4
  8
0
 39
5.0
 10
73.397982108465172
 20
73.291101606220664
 30
0.0
 11
73.407682108465167
 21
73.445101606220675
 31
0.0
  0
LINE
  5
1F5
  8
0
 39
5.0
 10
73.407682108465167
 20
73.445101606220675
 30
0.0
 11
73.453082108465168
 21
73.597901606220674
 31
0.0
  0
LINE
  5
1F6
  8
0
 39
5.0
 10
73.453082108465168
 20
73.597901606220674
 30
0.0
 11
73.535882108465174
 21
73.74590160622067
 31
0.0
  0
LINE
  5
1F7
  8
0
 39
5.0
 10
73.535882108465174
 20
73.74590160622067
 30
0.0
 11
73.658882108465178
 21
73.884501606220667
 31
0.0
  0
LINE
  5
1F8
  8
0
 39
5.0
 10
73.658882108465178
 20
73.884501606220667
 30
0.0
 11
73.824082108465177
 21
74.009701606220673
 31
0.0
  0
LINE
  5
1F9
  8
0
 39
5.0
 10
73.824082108465177
 20
74.009701606220673
 30
0.0
 11
74.033982108465182
 21
74.117201606220675
 31
0.0
  0
LINE
  5
1FA
  8
0
 39
5.0
 10
74.033982108465182
 20
74.117201606220675
 30
0.0
 11
74.290582108465173
 21
74.203001606220667
 31
0.0
  0
LINE
  5
1FB
  8
0
 39
5.0
 10
74.290582108465173
 20
74.203001606220667
 30
0.0
 11
74.596582108465171
 21
74.262901606220666
 31
0.0
  0
LINE
  5
1FC
  8
0
 39
5.0
 10
74.596582108465171
 20
74.262901606220666
 30
0.0
 11
74.898812980948449
 21
74.288101606220678
 31
0.0
  0
LINE
  5
1FE
  8
0
 39
5.0
 10
74.898812980948449
 20
74.288101606220678
 30
0.0
 11
78.612982108465175
 21
74.288101606220678
 31
0.0
  0
LINE
  5
1FF
  8
0
 39
5.0
 10
78.612982108465175
 20
74.288101606220678
 30
0.0
 11
78.612982108465175
 21
74.288101606220678
 31
0.0
  0
LINE
  5
200
  8
0
 39
5.0
 10
78.612982108465175
 20
74.288101606220678
 30
0.0
 11
78.804582108465183
 21
74.033301606220675
 31
0.0
  0
LINE
  5
201
  8
0
 39
5.0
 10
78.804582108465183
 20
74.033301606220675
 30
0.0
 11
78.986182108465172
 21
73.824501606220664
 31
0.0
  0
LINE
  5
202
  8
0
 39
5.0
 10
78.986182108465172
 20
73.824501606220664
 30
0.0
 11
79.157982108465177
 21
73.659301606220666
 31
0.0
  0
LINE
  5
203
  8
0
 39
5.0
 10
79.157982108465177
 20
73.659301606220666
 30
0.0
 11
79.320982108465174
 21
73.535001606220675
 31
0.0
  0
LINE
  5
204
  8
0
 39
5.0
 10
79.320982108465174
 20
73.535001606220675
 30
0.0
 11
79.475282108465166
 21
73.449201606220655
 31
0.0
  0
LINE
  5
205
  8
0
 39
5.0
 10
79.475282108465166
 20
73.449201606220655
 30
0.0
 11
79.621782108465155
 21
73.399001606220665
 31
0.0
  0
LINE
  5
206
  8
0
 39
5.0
 10
79.621782108465155
 20
73.399001606220665
 30
0.0
 11
79.760782108465179
 21
73.382101606220672
 31
0.0
  0
LINE
  5
207
  8
0
 39
5.0
 10
79.760782108465179
 20
73.382101606220672
 30
0.0
 11
79.893282108465172
 21
73.395501606220677
 31
0.0
  0
LINE
  5
208
  8
0
 39
5.0
 10
79.893282108465172
 20
73.395501606220677
 30
0.0
 11
80.019282108465177
 21
73.437001606220676
 31
0.0
  0
LINE
  5
209
  8
0
 39
5.0
 10
80.019282108465177
 20
73.437001606220676
 30
0.0
 11
80.139882108465173
 21
73.503701606220673
 31
0.0
  0
LINE
  5
20A
  8
0
 39
5.0
 10
80.139882108465173
 20
73.503701606220673
 30
0.0
 11
80.255382108465184
 21
73.593101606220671
 31
0.0
  0
LINE
  5
20B
  8
0
 39
5.0
 10
80.255382108465184
 20
73.593101606220671
 30
0.0
 11
80.366582108465167
 21
73.702401606220675
 31
0.0
  0
LINE
  5
20C
  8
0
 39
5.0
 10
80.366582108465167
 20
73.702401606220675
 30
0.0
 11
80.473782108465173
 21
73.829401606220671
 31
0.0
  0
LINE
  5
20D
  8
0
 39
5.0
 10
80.473782108465173
 20
73.829401606220671
 30
0.0
 11
80.577782108465172
 21
73.971001606220653
 31
0.0
  0
LINE
  5
20E
  8
0
 39
5.0
 10
80.577782108465172
 20
73.971001606220653
 30
0.0
 11
80.679082108465167
 21
74.124801606220672
 31
0.0
  0
LINE
  5
20F
  8
0
 39
5.0
 10
80.679082108465167
 20
74.124801606220672
 30
0.0
 11
80.778282108465163
 21
74.288101606220678
 31
0.0
  0
LINE
  5
210
  8
0
 39
5.0
 10
80.778282108465163
 20
74.288101606220678
 30
0.0
 11
88.15978210846518
 21
74.288101606220678
 31
0.0
  0
LINE
  5
213
  8
0
 39
5.0
 10
78.304782108465176
 20
66.394801606220682
 30
0.0
 11
78.304782108465176
 21
66.394801606220682
 31
0.0
  0
LINE
  5
214
  8
0
 39
5.0
 10
78.304782108465176
 20
66.394801606220682
 30
0.0
 11
78.449882108465189
 21
66.483601606220674
 31
0.0
  0
LINE
  5
215
  8
0
 39
5.0
 10
78.449882108465189
 20
66.483601606220674
 30
0.0
 11
78.577782108465186
 21
66.570001606220671
 31
0.0
  0
LINE
  5
216
  8
0
 39
5.0
 10
78.577782108465186
 20
66.570001606220671
 30
0.0
 11
78.687882108465189
 21
66.654401606220674
 31
0.0
  0
LINE
  5
217
  8
0
 39
5.0
 10
78.687882108465189
 20
66.654401606220674
 30
0.0
 11
78.779882108465173
 21
66.736801606220681
 31
0.0
  0
LINE
  5
218
  8
0
 39
5.0
 10
78.779882108465173
 20
66.736801606220681
 30
0.0
 11
78.852982108465184
 21
66.81770160622068
 31
0.0
  0
LINE
  5
219
  8
0
 39
5.0
 10
78.852982108465184
 20
66.81770160622068
 30
0.0
 11
78.907282108465182
 21
66.896801606220663
 31
0.0
  0
LINE
  5
21A
  8
0
 39
5.0
 10
78.907282108465182
 20
66.896801606220663
 30
0.0
 11
78.94188210846518
 21
66.974601606220673
 31
0.0
  0
LINE
  5
21B
  8
0
 39
5.0
 10
78.94188210846518
 20
66.974601606220673
 30
0.0
 11
78.956782108465191
 21
67.050901606220677
 31
0.0
  0
LINE
  5
21C
  8
0
 39
5.0
 10
78.956782108465191
 20
67.050901606220677
 30
0.0
 11
78.950982108465183
 21
67.126301606220679
 31
0.0
  0
LINE
  5
21D
  8
0
 39
5.0
 10
78.950982108465183
 20
67.126301606220679
 30
0.0
 11
78.924582108465174
 21
67.200501606220683
 31
0.0
  0
LINE
  5
21E
  8
0
 39
5.0
 10
78.924582108465174
 20
67.200501606220683
 30
0.0
 11
78.876782108465179
 21
67.273801606220673
 31
0.0
  0
LINE
  5
21F
  8
0
 39
5.0
 10
78.876782108465179
 20
67.273801606220673
 30
0.0
 11
78.807582108465184
 21
67.346401606220681
 31
0.0
  0
LINE
  5
220
  8
0
 39
5.0
 10
78.807582108465184
 20
67.346401606220681
 30
0.0
 11
78.715982108465184
 21
67.418601606220676
 31
0.0
  0
LINE
  5
221
  8
0
 39
5.0
 10
78.715982108465184
 20
67.418601606220676
 30
0.0
 11
78.602082108465183
 21
67.490101606220676
 31
0.0
  0
LINE
  5
222
  8
0
 39
5.0
 10
78.602082108465183
 20
67.490101606220676
 30
0.0
 11
78.465082108465182
 21
67.561401606220684
 31
0.0
  0
LINE
  5
223
  8
0
 39
5.0
 10
78.465082108465182
 20
67.561401606220684
 30
0.0
 11
78.304782108465176
 21
67.632501606220671
 31
0.0
  0
LINE
  5
224
  8
0
 39
5.0
 10
78.304782108465176
 20
67.632501606220671
 30
0.0
 11
72.609482108465173
 21
71.824801606220674
 31
0.0
  0
LINE
  5
225
  8
0
 39
5.0
 10
72.609482108465173
 20
71.824801606220674
 30
0.0
 11
72.609482108465173
 21
71.824801606220674
 31
0.0
  0
LINE
  5
226
  8
0
 39
5.0
 10
72.609482108465173
 20
71.824801606220674
 30
0.0
 11
72.435282108465174
 21
71.963801606220684
 31
0.0
  0
LINE
  5
227
  8
0
 39
5.0
 10
72.435282108465174
 20
71.963801606220684
 30
0.0
 11
72.289382108465176
 21
72.107401606220677
 31
0.0
  0
LINE
  5
228
  8
0
 39
5.0
 10
72.289382108465176
 20
72.107401606220677
 30
0.0
 11
72.171082108465171
 21
72.25520160622068
 31
0.0
  0
LINE
  5
229
  8
0
 39
5.0
 10
72.171082108465171
 20
72.25520160622068
 30
0.0
 11
72.079782108465153
 21
72.406301606220666
 31
0.0
  0
LINE
  5
22A
  8
0
 39
5.0
 10
72.079782108465153
 20
72.406301606220666
 30
0.0
 11
72.014882108465173
 21
72.56040160622068
 31
0.0
  0
LINE
  5
22B
  8
0
 39
5.0
 10
72.014882108465173
 20
72.56040160622068
 30
0.0
 11
71.976182108465167
 21
72.716801606220685
 31
0.0
  0
LINE
  5
22C
  8
0
 39
5.0
 10
71.976182108465167
 20
72.716801606220685
 30
0.0
 11
71.962782108465177
 21
72.874801606220672
 31
0.0
  0
LINE
  5
22D
  8
0
 39
5.0
 10
71.962782108465177
 20
72.874801606220672
 30
0.0
 11
71.974582108465171
 21
73.033801606220678
 31
0.0
  0
LINE
  5
22E
  8
0
 39
5.0
 10
71.974582108465171
 20
73.033801606220678
 30
0.0
 11
72.010582108465172
 21
73.193401606220675
 31
0.0
  0
LINE
  5
22F
  8
0
 39
5.0
 10
72.010582108465172
 20
73.193401606220675
 30
0.0
 11
72.070782108465181
 21
73.35280160622068
 31
0.0
  0
LINE
  5
230
  8
0
 39
5.0
 10
72.070782108465181
 20
73.35280160622068
 30
0.0
 11
72.154182108465164
 21
73.511501606220676
 31
0.0
  0
LINE
  5
231
  8
0
 39
5.0
 10
72.154182108465164
 20
73.511501606220676
 30
0.0
 11
72.260582108465172
 21
73.668801606220683
 31
0.0
  0
LINE
  5
232
  8
0
 39
5.0
 10
72.260582108465172
 20
73.668801606220683
 30
0.0
 11
72.389182108465164
 21
73.824201606220683
 31
0.0
  0
LINE
  5
233
  8
0
 39
5.0
 10
72.389182108465164
 20
73.824201606220683
 30
0.0
 11
72.539882108465179
 21
73.976901606220679
 31
0.0
  0
LINE
  5
234
  8
0
 39
5.0
 10
72.539882108465179
 20
73.976901606220679
 30
0.0
 11
72.711782108465172
 21
74.126501606220671
 31
0.0
  0
LINE
  5
235
  8
0
 39
5.0
 10
72.711782108465172
 20
74.126501606220671
 30
0.0
 11
72.904682108465181
 21
74.272101606220673
 31
0.0
  0
LINE
  5
238
  8
0
 39
5.0
 10
79.159782108465194
 20
91.288101606220664
 30
0.0
 11
88.15978210846518
 21
91.288101606220678
 31
0.0
  0
LINE
  5
23D
  8
0
 39
5.0
 10
72.15978210846518
 20
54.430142182835731
 30
0.0
 11
72.348082108465192
 21
54.610801606220669
 31
0.0
  0
LINE
  5
23E
  8
0
 39
5.0
 10
72.348082108465192
 20
54.610801606220669
 30
0.0
 11
72.566282108465174
 21
54.790501606220673
 31
0.0
  0
LINE
  5
23F
  8
0
 39
5.0
 10
72.566282108465174
 20
54.790501606220673
 30
0.0
 11
72.81518210846518
 21
54.970201606220677
 31
0.0
  0
LINE
  5
240
  8
0
 39
5.0
 10
72.81518210846518
 20
54.970201606220677
 30
0.0
 11
73.094882108465185
 21
55.149601606220671
 31
0.0
  0
LINE
  5
241
  8
0
 39
5.0
 10
73.094882108465185
 20
55.149601606220671
 30
0.0
 11
73.405282108465187
 21
55.329301606220682
 31
0.0
  0
LINE
  5
242
  8
0
 39
5.0
 10
73.405282108465187
 20
55.329301606220682
 30
0.0
 11
73.746482108465173
 21
55.509001606220679
 31
0.0
  0
LINE
  5
243
  8
0
 39
5.0
 10
73.746482108465173
 20
55.509001606220679
 30
0.0
 11
74.118382108465184
 21
55.688701606220683
 31
0.0
  0
LINE
  5
244
  8
0
 39
5.0
 10
74.118382108465184
 20
55.688701606220683
 30
0.0
 11
74.271182108465183
 21
55.868101606220677
 31
0.0
  0
LINE
  5
245
  8
0
 39
5.0
 10
74.271182108465183
 20
55.868101606220677
 30
0.0
 11
74.704582108465175
 21
56.047801606220673
 31
0.0
  0
LINE
  5
246
  8
0
 39
5.0
 10
74.704582108465175
 20
56.047801606220673
 30
0.0
 11
75.16878210846518
 21
56.227501606220677
 31
0.0
  0
LINE
  5
247
  8
0
 39
5.0
 10
75.16878210846518
 20
56.227501606220677
 30
0.0
 11
75.663682108465181
 21
56.407201606220681
 31
0.0
  0
LINE
  5
248
  8
0
 39
5.0
 10
75.663682108465181
 20
56.407201606220681
 30
0.0
 11
76.189582108465189
 21
56.586601606220682
 31
0.0
  0
LINE
  5
249
  8
0
 39
5.0
 10
76.189582108465189
 20
56.586601606220682
 30
0.0
 11
76.745982108465185
 21
56.766301606220672
 31
0.0
  0
LINE
  5
24A
  8
0
 39
5.0
 10
76.745982108465185
 20
56.766301606220672
 30
0.0
 11
77.333182108465181
 21
56.94570160622068
 31
0.0
  0
LINE
  5
24B
  8
0
 39
5.0
 10
77.333182108465181
 20
56.94570160622068
 30
0.0
 11
77.951182108465176
 21
57.125401606220677
 31
0.0
  0
LINE
  5
24C
  8
0
 39
5.0
 10
77.951182108465176
 20
57.125401606220677
 30
0.0
 11
78.600082108465173
 21
57.304801606220678
 31
0.0
  0
LINE
  5
24D
  8
0
 39
5.0
 10
78.600082108465173
 20
57.304801606220678
 30
0.0
 11
78.600082108465173
 21
57.304801606220678
 31
0.0
  0
LINE
  5
24E
  8
0
 39
5.0
 10
78.600082108465173
 20
57.304801606220678
 30
0.0
 11
78.816982108465183
 21
57.358001606220682
 31
0.0
  0
LINE
  5
24F
  8
0
 39
5.0
 10
78.816982108465183
 20
57.358001606220682
 30
0.0
 11
79.00098210846518
 21
57.420501606220682
 31
0.0
  0
LINE
  5
250
  8
0
 39
5.0
 10
79.00098210846518
 20
57.420501606220682
 30
0.0
 11
79.152882108465192
 21
57.491001606220671
 31
0.0
  0
LINE
  5
251
  8
0
 39
5.0
 10
79.152882108465192
 20
57.491001606220671
 30
0.0
 11
79.273582108465192
 21
57.56770160622068
 31
0.0
  0
LINE
  5
252
  8
0
 39
5.0
 10
79.273582108465192
 20
57.56770160622068
 30
0.0
 11
79.363782108465173
 21
57.649701606220667
 31
0.0
  0
LINE
  5
253
  8
0
 39
5.0
 10
79.363782108465173
 20
57.649701606220667
 30
0.0
 11
79.424682108465177
 21
57.735001606220671
 31
0.0
  0
LINE
  5
254
  8
0
 39
5.0
 10
79.424682108465177
 20
57.735001606220671
 30
0.0
 11
79.456782108465191
 21
57.822601606220672
 31
0.0
  0
LINE
  5
255
  8
0
 39
5.0
 10
79.456782108465191
 20
57.822601606220672
 30
0.0
 11
79.461282108465184
 21
57.910701606220677
 31
0.0
  0
LINE
  5
256
  8
0
 39
5.0
 10
79.461282108465184
 20
57.910701606220677
 30
0.0
 11
79.438582108465184
 21
57.998201606220682
 31
0.0
  0
LINE
  5
257
  8
0
 39
5.0
 10
79.438582108465184
 20
57.998201606220682
 30
0.0
 11
79.390082108465194
 21
58.083401606220669
 31
0.0
  0
LINE
  5
258
  8
0
 39
5.0
 10
79.390082108465194
 20
58.083401606220669
 30
0.0
 11
79.316182108465185
 21
58.165101606220666
 31
0.0
  0
LINE
  5
259
  8
0
 39
5.0
 10
79.316182108465185
 20
58.165101606220666
 30
0.0
 11
79.218182108465186
 21
58.241401606220677
 31
0.0
  0
LINE
  5
25A
  8
0
 39
5.0
 10
79.218182108465186
 20
58.241401606220677
 30
0.0
 11
79.096582108465185
 21
58.311301606220681
 31
0.0
  0
LINE
  5
25B
  8
0
 39
5.0
 10
79.096582108465185
 20
58.311301606220681
 30
0.0
 11
78.95248210846519
 21
58.373101606220672
 31
0.0
  0
LINE
  5
25C
  8
0
 39
5.0
 10
78.95248210846519
 20
58.373101606220672
 30
0.0
 11
78.786682108465186
 21
58.425501606220671
 31
0.0
  0
LINE
  5
25D
  8
0
 39
5.0
 10
78.786682108465186
 20
58.425501606220671
 30
0.0
 11
78.600082108465173
 21
58.466901606220667
 31
0.0
  0
LINE
  5
25E
  8
0
 39
5.0
 10
78.600082108465173
 20
58.466901606220667
 30
0.0
 11
73.437082108465191
 21
61.35580160622068
 31
0.0
  0
LINE
  5
25F
  8
0
 39
5.0
 10
73.437082108465191
 20
61.35580160622068
 30
0.0
 11
73.437082108465191
 21
61.35580160622068
 31
0.0
  0
LINE
  5
260
  8
0
 39
5.0
 10
73.437082108465191
 20
61.35580160622068
 30
0.0
 11
73.182082108465181
 21
61.42600160622068
 31
0.0
  0
LINE
  5
261
  8
0
 39
5.0
 10
73.182082108465181
 20
61.42600160622068
 30
0.0
 11
72.958982108465179
 21
61.525901606220671
 31
0.0
  0
LINE
  5
262
  8
0
 39
5.0
 10
72.958982108465179
 20
61.525901606220671
 30
0.0
 11
72.767982108465176
 21
61.651401606220666
 31
0.0
  0
LINE
  5
263
  8
0
 39
5.0
 10
72.767982108465176
 20
61.651401606220666
 30
0.0
 11
72.609582108465176
 21
61.798101606220683
 31
0.0
  0
LINE
  5
264
  8
0
 39
5.0
 10
72.609582108465176
 20
61.798101606220683
 30
0.0
 11
72.483582108465185
 21
61.962201606220667
 31
0.0
  0
LINE
  5
265
  8
0
 39
5.0
 10
72.483582108465185
 20
61.962201606220667
 30
0.0
 11
72.390682108465185
 21
62.13910160622067
 31
0.0
  0
LINE
  5
266
  8
0
 39
5.0
 10
72.390682108465185
 20
62.13910160622067
 30
0.0
 11
72.331082108465182
 21
62.324801606220667
 31
0.0
  0
LINE
  5
267
  8
0
 39
5.0
 10
72.331082108465182
 20
62.324801606220667
 30
0.0
 11
72.305082108465186
 21
62.515001606220679
 31
0.0
  0
LINE
  5
268
  8
0
 39
5.0
 10
72.305082108465186
 20
62.515001606220679
 30
0.0
 11
72.312682108465182
 21
62.705801606220668
 31
0.0
  0
LINE
  5
269
  8
0
 39
5.0
 10
72.312682108465182
 20
62.705801606220668
 30
0.0
 11
72.354582108465181
 21
62.89260160622068
 31
0.0
  0
LINE
  5
26A
  8
0
 39
5.0
 10
72.354582108465181
 20
62.89260160622068
 30
0.0
 11
72.430882108465184
 21
63.071501606220679
 31
0.0
  0
LINE
  5
26B
  8
0
 39
5.0
 10
72.430882108465184
 20
63.071501606220679
 30
0.0
 11
72.541882108465174
 21
63.238101606220681
 31
0.0
  0
LINE
  5
26C
  8
0
 39
5.0
 10
72.541882108465174
 20
63.238101606220681
 30
0.0
 11
72.687782108465186
 21
63.388401606220683
 31
0.0
  0
LINE
  5
26D
  8
0
 39
5.0
 10
72.687782108465186
 20
63.388401606220683
 30
0.0
 11
72.868982108465175
 21
63.517901606220668
 31
0.0
  0
LINE
  5
26E
  8
0
 39
5.0
 10
72.868982108465175
 20
63.517901606220668
 30
0.0
 11
73.085782108465182
 21
63.622701606220673
 31
0.0
  0
LINE
  5
26F
  8
0
 39
5.0
 10
73.085782108465182
 20
63.622701606220673
 30
0.0
 11
73.338582108465189
 21
63.698401606220678
 31
0.0
  0
LINE
  5
270
  8
0
 39
5.0
 10
73.338582108465189
 20
63.698401606220678
 30
0.0
 11
78.304782108465176
 21
66.394801606220682
 31
0.0
  0
LINE
  5
271
  8
0
 10
72.15978210846518
 20
53.788101606220678
 30
0.0
 11
88.15978210846518
 21
53.788101606220678
 31
0.0
  0
LINE
  5
376
  8
0
 10
80.159782108465166
 20
57.70647701711119
 30
0.0
 11
88.15978210846518
 21
57.70647701711119
 31
0.0
  0
LINE
  5
4D0
  8
1
 10
88.15978210846518
 20
91.788101606220678
 30
0.0
 11
88.15978210846518
 21
53.288101606220678
 31
0.0
  0
LINE
  5
4D3
  8
0
 10
84.159782108465166
 20
91.288101606220678
 30
0.0
 11
84.159782108465166
 21
78.288101606220678
 31
0.0
  0
LINE
  5
4D7
  8
0
 10
79.159782108465166
 20
81.288101606220678
 30
0.0
 11
79.159782108465166
 21
91.288101606220678
 31
0.0
  0
LINE
  5
4D8
  8
0
 10
80.65978210846518
 20
78.288101606220678
 30
0.0
 11
88.15978210846518
 21
78.288101606220678
 31
0.0
  0
LINE
  5
4DE
  8
0
 10
72.904682108465181
 20
74.272101606220673
 30
0.0
 11
79.159782108465166
 21
81.288101606220678
 31
0.0
  0
LINE
  5
4E2
  8
0
 10
80.65978210846518
 20
78.288101606220678
 30
0.0
 11
80.65978210846518
 21
74.095499138303595
 31
0.0
  0
LINE
  5
4E6
  8
0
 10
72.15978210846518
 20
54.430142182835731
 30
0.0
 11
72.15978210846518
 21
53.788101606220678
 31
0.0
  0
LINE
  5
567
  8
0
 10
80.159782108465166
 20
57.365433246845662
 30
0.0
 11
80.159782108465166
 21
58.407534319398977
 31
0.0
  0
LINE
  5
56E
  8
0
 39
5.0
 10
96.163482108465175
 20
57.355301606220678
 30
0.0
 11
96.159782108465194
 21
57.365433246845662
 31
0.0
  0
LINE
  5
56F
  8
0
 39
5.0
 10
96.159782108465194
 20
58.407534319398977
 30
0.0
 11
96.216382108465169
 21
58.522401606220683
 31
0.0
  0
LINE
  5
570
  8
0
 39
5.0
 10
101.4207512359819
 20
74.288101606220678
 30
0.0
 11
97.706582108465184
 21
74.288101606220678
 31
0.0
  0
LINE
  5
571
  8
0
 39
5.0
 10
101.7229821084651
 20
74.262901606220666
 30
0.0
 11
101.4207512359819
 21
74.288101606220678
 31
0.0
  0
LINE
  5
573
  8
0
 39
5.0
 10
102.3645821084651
 20
72.581301606220677
 30
0.0
 11
102.3645821084651
 21
72.581301606220677
 31
0.0
  0
LINE
  5
574
  8
0
 39
5.0
 10
102.3645821084651
 20
72.581301606220677
 30
0.0
 11
102.51928210846511
 21
72.653501606220672
 31
0.0
  0
LINE
  5
575
  8
0
 39
5.0
 10
102.51928210846511
 20
72.653501606220672
 30
0.0
 11
102.6522821084651
 21
72.749501606220676
 31
0.0
  0
LINE
  5
576
  8
0
 39
5.0
 10
102.6522821084651
 20
72.749501606220676
 30
0.0
 11
102.7613821084651
 21
72.865501606220676
 31
0.0
  0
LINE
  5
577
  8
0
 39
5.0
 10
102.7613821084651
 20
72.865501606220676
 30
0.0
 11
102.8439821084651
 21
72.997101606220653
 31
0.0
  0
LINE
  5
578
  8
0
 39
5.0
 10
102.8439821084651
 20
72.997101606220653
 30
0.0
 11
102.8982821084651
 21
73.140501606220667
 31
0.0
  0
LINE
  5
579
  8
0
 39
5.0
 10
102.8982821084651
 20
73.140501606220667
 30
0.0
 11
102.9215821084651
 21
73.291101606220664
 31
0.0
  0
LINE
  5
57A
  8
0
 39
5.0
 10
102.9215821084651
 20
73.291101606220664
 30
0.0
 11
102.91188210846521
 21
73.445101606220675
 31
0.0
  0
LINE
  5
57B
  8
0
 39
5.0
 10
102.91188210846521
 20
73.445101606220675
 30
0.0
 11
102.86648210846511
 21
73.597901606220674
 31
0.0
  0
LINE
  5
57C
  8
0
 39
5.0
 10
102.86648210846511
 20
73.597901606220674
 30
0.0
 11
102.7836821084651
 21
73.74590160622067
 31
0.0
  0
LINE
  5
57D
  8
0
 39
5.0
 10
102.7836821084651
 20
73.74590160622067
 30
0.0
 11
102.6606821084651
 21
73.884501606220667
 31
0.0
  0
LINE
  5
57E
  8
0
 39
5.0
 10
102.6606821084651
 20
73.884501606220667
 30
0.0
 11
102.4954821084651
 21
74.009701606220673
 31
0.0
  0
LINE
  5
57F
  8
0
 39
5.0
 10
102.4954821084651
 20
74.009701606220673
 30
0.0
 11
102.28558210846511
 21
74.117201606220675
 31
0.0
  0
LINE
  5
580
  8
0
 39
5.0
 10
102.0289821084651
 20
74.203001606220667
 30
0.0
 11
101.7229821084651
 21
74.262901606220666
 31
0.0
  0
LINE
  5
581
  8
0
 39
5.0
 10
97.706582108465184
 20
74.288101606220678
 30
0.0
 11
97.706582108465184
 21
74.288101606220678
 31
0.0
  0
LINE
  5
582
  8
0
 39
5.0
 10
97.706582108465184
 20
74.288101606220678
 30
0.0
 11
97.514982108465176
 21
74.033301606220675
 31
0.0
  0
LINE
  5
583
  8
0
 39
5.0
 10
97.514982108465176
 20
74.033301606220675
 30
0.0
 11
97.333382108465173
 21
73.824501606220664
 31
0.0
  0
LINE
  5
584
  8
0
 39
5.0
 10
97.333382108465173
 20
73.824501606220664
 30
0.0
 11
97.161582108465183
 21
73.659301606220666
 31
0.0
  0
LINE
  5
585
  8
0
 39
5.0
 10
97.161582108465183
 20
73.659301606220666
 30
0.0
 11
96.998582108465186
 21
73.535001606220675
 31
0.0
  0
LINE
  5
586
  8
0
 39
5.0
 10
96.998582108465186
 20
73.535001606220675
 30
0.0
 11
96.844282108465194
 21
73.449201606220655
 31
0.0
  0
LINE
  5
587
  8
0
 39
5.0
 10
96.844282108465194
 20
73.449201606220655
 30
0.0
 11
96.697782108465191
 21
73.399001606220665
 31
0.0
  0
LINE
  5
588
  8
0
 39
5.0
 10
96.697782108465191
 20
73.399001606220665
 30
0.0
 11
96.558782108465181
 21
73.382101606220672
 31
0.0
  0
LINE
  5
589
  8
0
 39
5.0
 10
96.558782108465181
 20
73.382101606220672
 30
0.0
 11
96.426282108465188
 21
73.395501606220677
 31
0.0
  0
LINE
  5
58A
  8
0
 39
5.0
 10
96.426282108465188
 20
73.395501606220677
 30
0.0
 11
96.300282108465183
 21
73.437001606220676
 31
0.0
  0
LINE
  5
58B
  8
0
 39
5.0
 10
96.300282108465183
 20
73.437001606220676
 30
0.0
 11
96.179682108465201
 21
73.503701606220673
 31
0.0
  0
LINE
  5
58C
  8
0
 39
5.0
 10
96.179682108465201
 20
73.503701606220673
 30
0.0
 11
96.064182108465204
 21
73.593101606220671
 31
0.0
  0
LINE
  5
58D
  8
0
 39
5.0
 10
96.064182108465204
 20
73.593101606220671
 30
0.0
 11
95.952982108465207
 21
73.702401606220675
 31
0.0
  0
LINE
  5
58E
  8
0
 39
5.0
 10
95.952982108465207
 20
73.702401606220675
 30
0.0
 11
95.845782108465187
 21
73.829401606220671
 31
0.0
  0
LINE
  5
58F
  8
0
 39
5.0
 10
95.845782108465187
 20
73.829401606220671
 30
0.0
 11
95.741782108465173
 21
73.971001606220653
 31
0.0
  0
LINE
  5
590
  8
0
 39
5.0
 10
95.741782108465173
 20
73.971001606220653
 30
0.0
 11
95.640482108465207
 21
74.124801606220672
 31
0.0
  0
LINE
  5
591
  8
0
 39
5.0
 10
95.640482108465207
 20
74.124801606220672
 30
0.0
 11
95.541282108465197
 21
74.288101606220678
 31
0.0
  0
LINE
  5
592
  8
0
 39
5.0
 10
102.28558210846511
 20
74.117201606220675
 30
0.0
 11
102.0289821084651
 21
74.203001606220667
 31
0.0
  0
LINE
  5
593
  8
0
 39
5.0
 10
95.541282108465197
 20
74.288101606220678
 30
0.0
 11
88.15978210846518
 21
74.288101606220678
 31
0.0
  0
LINE
  5
594
  8
0
 39
5.0
 10
96.243082108465174
 20
67.975801606220685
 30
0.0
 11
102.3645821084651
 21
72.581301606220677
 31
0.0
  0
POLYLINE
  5
595
  8
0
 66
     1
 10
0.0
 20
0.0
 30
0.0
 39
5.0
  0
VERTEX
  5
748
  8
0
 10
102.20688210846509
 20
62.561101606220682
 30
0.0
  0
VERTEX
  5
749
  8
0
 10
88.15978210846518
 20
62.561101606220682
 30
0.0
  0
SEQEND
  5
74A
  8
0
  0
POLYLINE
  5
596
  8
0
 66
     1
 10
0.0
 20
0.0
 30
0.0
 39
5.0
  0
VERTEX
  5
74B
  8
0
 10
95.619882108465177
 20
66.975401606220672
 30
0.0
  0
VERTEX
  5
74C
  8
0
 10
88.15978210846518
 20
66.975401606220672
 30
0.0
  0
SEQEND
  5
74D
  8
0
  0
LINE
  5
597
  8
0
 39
5.0
 10
104.15978210846509
 20
54.430142182835731
 30
0.0
 11
103.9714821084651
 21
54.610801606220669
 31
0.0
  0
LINE
  5
598
  8
0
 39
5.0
 10
103.6678229949764
 20
53.788101606220671
 30
0.0
 11
103.4652821084651
 21
54.009601606220677
 31
0.0
  0
LINE
  5
599
  8
0
 39
5.0
 10
103.4652821084651
 20
54.009601606220677
 30
0.0
 11
103.18628210846509
 21
54.258801606220672
 31
0.0
  0
LINE
  5
59A
  8
0
 39
5.0
 10
103.18628210846509
 20
54.258801606220672
 30
0.0
 11
102.86988210846511
 21
54.496301606220683
 31
0.0
  0
LINE
  5
59B
  8
0
 39
5.0
 10
102.86988210846511
 20
54.496301606220683
 30
0.0
 11
102.5178821084651
 21
54.723001606220677
 31
0.0
  0
LINE
  5
59C
  8
0
 39
5.0
 10
102.5178821084651
 20
54.723001606220677
 30
0.0
 11
102.1326821084651
 21
54.940001606220683
 31
0.0
  0
LINE
  5
59D
  8
0
 39
5.0
 10
102.1326821084651
 20
54.940001606220683
 30
0.0
 11
101.9659821084651
 21
55.148001606220667
 31
0.0
  0
LINE
  5
59E
  8
0
 39
5.0
 10
101.9659821084651
 20
55.148001606220667
 30
0.0
 11
101.5202821084651
 21
55.347901606220667
 31
0.0
  0
LINE
  5
59F
  8
0
 39
5.0
 10
101.5202821084651
 20
55.347901606220667
 30
0.0
 11
101.04718210846509
 21
55.540401606220691
 31
0.0
  0
LINE
  5
5A0
  8
0
 39
5.0
 10
101.04718210846509
 20
55.540401606220691
 30
0.0
 11
100.5491821084651
 21
55.726901606220679
 31
0.0
  0
LINE
  5
5A1
  8
0
 39
5.0
 10
100.5491821084651
 20
55.726901606220679
 30
0.0
 11
100.0280821084651
 21
55.907801606220673
 31
0.0
  0
LINE
  5
5A2
  8
0
 39
5.0
 10
100.0280821084651
 20
55.907801606220673
 30
0.0
 11
99.485982108465166
 21
56.08430160622067
 31
0.0
  0
LINE
  5
5A3
  8
0
 39
5.0
 10
99.485982108465166
 20
56.08430160622067
 30
0.0
 11
98.924982108465187
 21
56.257001606220683
 31
0.0
  0
LINE
  5
5A4
  8
0
 39
5.0
 10
98.924982108465187
 20
56.257001606220683
 30
0.0
 11
98.347282108465166
 21
56.427101606220667
 31
0.0
  0
LINE
  5
5A5
  8
0
 39
5.0
 10
98.347282108465166
 20
56.427101606220667
 30
0.0
 11
97.754582108465186
 21
56.595201606220691
 31
0.0
  0
LINE
  5
5A6
  8
0
 39
5.0
 10
97.754582108465186
 20
56.595201606220691
 30
0.0
 11
97.149282108465187
 21
56.762401606220678
 31
0.0
  0
LINE
  5
5A7
  8
0
 39
5.0
 10
97.149282108465187
 20
56.762401606220678
 30
0.0
 11
96.533182108465169
 21
56.929301606220683
 31
0.0
  0
LINE
  5
5A8
  8
0
 39
5.0
 10
96.533182108465169
 20
56.929301606220683
 30
0.0
 11
96.533182108465169
 21
56.929301606220683
 31
0.0
  0
LINE
  5
5A9
  8
0
 39
5.0
 10
96.533182108465169
 20
56.929301606220683
 30
0.0
 11
96.416282108465197
 21
57.009801606220677
 31
0.0
  0
LINE
  5
5AA
  8
0
 39
5.0
 10
96.416282108465197
 20
57.009801606220677
 30
0.0
 11
96.315582108465179
 21
57.109601606220679
 31
0.0
  0
LINE
  5
5AB
  8
0
 39
5.0
 10
96.315582108465179
 20
57.109601606220679
 30
0.0
 11
96.231382108465183
 21
57.225801606220671
 31
0.0
  0
LINE
  5
5AC
  8
0
 39
5.0
 10
96.231382108465183
 20
57.225801606220671
 30
0.0
 11
96.163482108465175
 21
57.355301606220678
 31
0.0
  0
LINE
  5
5AD
  8
0
 39
5.0
 10
96.216382108465169
 20
58.522401606220683
 30
0.0
 11
96.297782108465171
 21
58.640401606220671
 31
0.0
  0
LINE
  5
5AE
  8
0
 39
5.0
 10
96.297782108465171
 20
58.640401606220671
 30
0.0
 11
96.395682108465195
 21
58.742101606220672
 31
0.0
  0
LINE
  5
5AF
  8
0
 39
5.0
 10
96.395682108465195
 20
58.742101606220672
 30
0.0
 11
96.510282108465191
 21
58.824901606220678
 31
0.0
  0
LINE
  5
5B0
  8
0
 39
5.0
 10
96.510282108465191
 20
58.824901606220678
 30
0.0
 11
96.641582108465172
 21
58.885701606220678
 31
0.0
  0
LINE
  5
5B1
  8
0
 39
5.0
 10
96.641582108465172
 20
58.885701606220678
 30
0.0
 11
101.45938210846511
 21
61.652201606220672
 31
0.0
  0
LINE
  5
5B2
  8
0
 39
5.0
 10
101.45938210846511
 20
61.652201606220672
 30
0.0
 11
101.45938210846511
 21
61.652201606220672
 31
0.0
  0
LINE
  5
5B3
  8
0
 39
5.0
 10
101.45938210846511
 20
61.652201606220672
 30
0.0
 11
101.7377821084651
 21
61.742201606220668
 31
0.0
  0
LINE
  5
5B4
  8
0
 39
5.0
 10
101.7377821084651
 20
61.742201606220668
 30
0.0
 11
101.9792821084651
 21
61.836901606220671
 31
0.0
  0
LINE
  5
5B5
  8
0
 39
5.0
 10
101.9792821084651
 20
61.836901606220671
 30
0.0
 11
101.93458210846509
 21
61.935601606220672
 31
0.0
  0
LINE
  5
5B6
  8
0
 39
5.0
 10
101.93458210846509
 20
61.935601606220672
 30
0.0
 11
102.1042821084651
 21
62.037401606220683
 31
0.0
  0
LINE
  5
5B7
  8
0
 39
5.0
 10
102.1042821084651
 20
62.037401606220683
 30
0.0
 11
102.2391821084651
 21
62.141801606220682
 31
0.0
  0
LINE
  5
5B8
  8
0
 39
5.0
 10
102.2391821084651
 20
62.141801606220682
 30
0.0
 11
102.3397821084651
 21
62.247801606220669
 31
0.0
  0
LINE
  5
5B9
  8
0
 39
5.0
 10
102.3397821084651
 20
62.247801606220669
 30
0.0
 11
102.40678210846509
 21
62.354801606220668
 31
0.0
  0
LINE
  5
5BA
  8
0
 39
5.0
 10
102.40678210846509
 20
62.354801606220668
 30
0.0
 11
102.44058210846509
 21
62.461801606220668
 31
0.0
  0
LINE
  5
5BB
  8
0
 39
5.0
 10
102.44058210846509
 20
62.461801606220668
 30
0.0
 11
102.4424821084651
 21
62.568401606220682
 31
0.0
  0
LINE
  5
5BC
  8
0
 39
5.0
 10
102.4424821084651
 20
62.568401606220682
 30
0.0
 11
102.4123821084651
 21
62.673501606220682
 31
0.0
  0
LINE
  5
5BD
  8
0
 39
5.0
 10
102.4123821084651
 20
62.673501606220682
 30
0.0
 11
102.35148210846511
 21
62.77660160622068
 31
0.0
  0
LINE
  5
5BE
  8
0
 39
5.0
 10
102.35148210846511
 20
62.77660160622068
 30
0.0
 11
102.25988210846511
 21
62.876701606220671
 31
0.0
  0
LINE
  5
5BF
  8
0
 39
5.0
 10
102.25988210846511
 20
62.876701606220671
 30
0.0
 11
102.13878210846509
 21
62.973301606220673
 31
0.0
  0
LINE
  5
5C0
  8
0
 39
5.0
 10
102.13878210846509
 20
62.973301606220673
 30
0.0
 11
101.98848210846511
 21
63.065401606220668
 31
0.0
  0
LINE
  5
5C1
  8
0
 39
5.0
 10
101.98848210846511
 20
63.065401606220668
 30
0.0
 11
102.0597821084651
 21
63.152301606220682
 31
0.0
  0
LINE
  5
5C2
  8
0
 39
5.0
 10
102.0597821084651
 20
63.152301606220682
 30
0.0
 11
101.85318210846511
 21
63.233101606220671
 31
0.0
  0
LINE
  5
5C3
  8
0
 39
5.0
 10
101.85318210846511
 20
63.233101606220671
 30
0.0
 11
96.243182108465163
 21
66.197201606220673
 31
0.0
  0
LINE
  5
5C4
  8
0
 39
5.0
 10
96.243182108465163
 20
66.197201606220673
 30
0.0
 11
96.243182108465163
 21
66.197201606220673
 31
0.0
  0
LINE
  5
5C5
  8
0
 39
5.0
 10
96.243182108465163
 20
66.197201606220673
 30
0.0
 11
96.134682108465185
 21
66.238601606220683
 31
0.0
  0
LINE
  5
5C6
  8
0
 39
5.0
 10
96.134682108465185
 20
66.238601606220683
 30
0.0
 11
96.032482108465175
 21
66.299301606220681
 31
0.0
  0
LINE
  5
5C7
  8
0
 39
5.0
 10
96.032482108465175
 20
66.299301606220681
 30
0.0
 11
95.93848210846518
 21
66.377401606220673
 31
0.0
  0
LINE
  5
5C8
  8
0
 39
5.0
 10
95.93848210846518
 20
66.377401606220673
 30
0.0
 11
95.854182108465167
 21
66.470401606220676
 31
0.0
  0
LINE
  5
5C9
  8
0
 39
5.0
 10
95.854182108465167
 20
66.470401606220676
 30
0.0
 11
95.781682108465176
 21
66.576501606220674
 31
0.0
  0
LINE
  5
5CA
  8
0
 39
5.0
 10
95.781682108465176
 20
66.576501606220674
 30
0.0
 11
95.722282108465166
 21
66.693301606220672
 31
0.0
  0
LINE
  5
5CB
  8
0
 39
5.0
 10
95.722282108465166
 20
66.693301606220672
 30
0.0
 11
95.677982108465159
 21
66.818701606220685
 31
0.0
  0
LINE
  5
5CC
  8
0
 39
5.0
 10
95.677982108465159
 20
66.818701606220685
 30
0.0
 11
95.650382108465166
 21
66.95040160622068
 31
0.0
  0
LINE
  5
5CD
  8
0
 39
5.0
 10
95.650382108465166
 20
66.95040160622068
 30
0.0
 11
95.641482108465183
 21
67.086601606220682
 31
0.0
  0
LINE
  5
5CE
  8
0
 39
5.0
 10
95.641482108465183
 20
67.086601606220682
 30
0.0
 11
95.652782108465175
 21
67.22480160622068
 31
0.0
  0
LINE
  5
5CF
  8
0
 39
5.0
 10
95.652782108465175
 20
67.22480160622068
 30
0.0
 11
95.686082108465186
 21
67.362901606220674
 31
0.0
  0
LINE
  5
5D0
  8
0
 39
5.0
 10
95.686082108465186
 20
67.362901606220674
 30
0.0
 11
95.742982108465171
 21
67.498601606220674
 31
0.0
  0
LINE
  5
5D1
  8
0
 39
5.0
 10
95.742982108465171
 20
67.498601606220674
 30
0.0
 11
95.825582108465184
 21
67.630101606220677
 31
0.0
  0
LINE
  5
5D2
  8
0
 39
5.0
 10
95.825582108465184
 20
67.630101606220677
 30
0.0
 11
95.935182108465185
 21
67.754801606220681
 31
0.0
  0
LINE
  5
5D3
  8
0
 39
5.0
 10
95.935182108465185
 20
67.754801606220681
 30
0.0
 11
96.073882108465185
 21
67.870901606220684
 31
0.0
  0
LINE
  5
5D4
  8
0
 39
5.0
 10
96.073882108465185
 20
67.870901606220684
 30
0.0
 11
96.243082108465174
 21
67.975801606220685
 31
0.0
  0
LINE
  5
5D5
  8
0
 39
5.0
 10
98.014782108465184
 20
66.394801606220682
 30
0.0
 11
98.014782108465184
 21
66.394801606220682
 31
0.0
  0
LINE
  5
5D6
  8
0
 39
5.0
 10
98.014782108465184
 20
66.394801606220682
 30
0.0
 11
97.86968210846517
 21
66.483601606220674
 31
0.0
  0
LINE
  5
5D7
  8
0
 39
5.0
 10
97.86968210846517
 20
66.483601606220674
 30
0.0
 11
97.741782108465173
 21
66.570001606220671
 31
0.0
  0
LINE
  5
5D8
  8
0
 39
5.0
 10
97.741782108465173
 20
66.570001606220671
 30
0.0
 11
97.631682108465171
 21
66.654401606220674
 31
0.0
  0
LINE
  5
5D9
  8
0
 39
5.0
 10
97.631682108465171
 20
66.654401606220674
 30
0.0
 11
97.539682108465186
 21
66.736801606220681
 31
0.0
  0
LINE
  5
5DA
  8
0
 39
5.0
 10
97.539682108465186
 20
66.736801606220681
 30
0.0
 11
97.466582108465175
 21
66.81770160622068
 31
0.0
  0
LINE
  5
5DB
  8
0
 39
5.0
 10
97.466582108465175
 20
66.81770160622068
 30
0.0
 11
97.412282108465178
 21
66.896801606220663
 31
0.0
  0
LINE
  5
5DC
  8
0
 39
5.0
 10
97.412282108465178
 20
66.896801606220663
 30
0.0
 11
97.37768210846518
 21
66.974601606220673
 31
0.0
  0
LINE
  5
5DD
  8
0
 39
5.0
 10
97.37768210846518
 20
66.974601606220673
 30
0.0
 11
97.362782108465169
 21
67.050901606220677
 31
0.0
  0
LINE
  5
5DE
  8
0
 39
5.0
 10
97.362782108465169
 20
67.050901606220677
 30
0.0
 11
97.368582108465176
 21
67.126301606220679
 31
0.0
  0
LINE
  5
5DF
  8
0
 39
5.0
 10
97.368582108465176
 20
67.126301606220679
 30
0.0
 11
97.3949821084652
 21
67.200501606220683
 31
0.0
  0
LINE
  5
5E0
  8
0
 39
5.0
 10
97.3949821084652
 20
67.200501606220683
 30
0.0
 11
97.442782108465181
 21
67.273801606220673
 31
0.0
  0
LINE
  5
5E1
  8
0
 39
5.0
 10
97.442782108465181
 20
67.273801606220673
 30
0.0
 11
97.511982108465176
 21
67.346401606220681
 31
0.0
  0
LINE
  5
5E2
  8
0
 39
5.0
 10
97.511982108465176
 20
67.346401606220681
 30
0.0
 11
97.60358210846519
 21
67.418601606220676
 31
0.0
  0
LINE
  5
5E3
  8
0
 39
5.0
 10
97.60358210846519
 20
67.418601606220676
 30
0.0
 11
97.717482108465177
 21
67.490101606220676
 31
0.0
  0
LINE
  5
5E4
  8
0
 39
5.0
 10
97.717482108465177
 20
67.490101606220676
 30
0.0
 11
97.854482108465163
 21
67.561401606220684
 31
0.0
  0
LINE
  5
5E5
  8
0
 39
5.0
 10
97.854482108465163
 20
67.561401606220684
 30
0.0
 11
98.014782108465184
 21
67.632501606220671
 31
0.0
  0
LINE
  5
5E6
  8
0
 39
5.0
 10
103.9714821084651
 20
54.610801606220669
 30
0.0
 11
103.7532821084651
 21
54.790501606220673
 31
0.0
  0
LINE
  5
5E7
  8
0
 39
5.0
 10
103.7532821084651
 20
54.790501606220673
 30
0.0
 11
103.50438210846509
 21
54.970201606220677
 31
0.0
  0
LINE
  5
5E8
  8
0
 39
5.0
 10
103.50438210846509
 20
54.970201606220677
 30
0.0
 11
103.2246821084651
 21
55.149601606220671
 31
0.0
  0
LINE
  5
5E9
  8
0
 39
5.0
 10
103.2246821084651
 20
55.149601606220671
 30
0.0
 11
102.9142821084651
 21
55.329301606220682
 31
0.0
  0
LINE
  5
5EA
  8
0
 39
5.0
 10
102.9142821084651
 20
55.329301606220682
 30
0.0
 11
102.5730821084651
 21
55.509001606220679
 31
0.0
  0
LINE
  5
5EB
  8
0
 39
5.0
 10
102.5730821084651
 20
55.509001606220679
 30
0.0
 11
102.2011821084651
 21
55.688701606220683
 31
0.0
  0
LINE
  5
5EC
  8
0
 39
5.0
 10
102.2011821084651
 20
55.688701606220683
 30
0.0
 11
102.04838210846511
 21
55.868101606220677
 31
0.0
  0
LINE
  5
5ED
  8
0
 39
5.0
 10
102.04838210846511
 20
55.868101606220677
 30
0.0
 11
101.6149821084651
 21
56.047801606220673
 31
0.0
  0
LINE
  5
5EE
  8
0
 39
5.0
 10
101.6149821084651
 20
56.047801606220673
 30
0.0
 11
101.15078210846509
 21
56.227501606220677
 31
0.0
  0
LINE
  5
5EF
  8
0
 39
5.0
 10
101.15078210846509
 20
56.227501606220677
 30
0.0
 11
100.65588210846509
 21
56.407201606220681
 31
0.0
  0
LINE
  5
5F0
  8
0
 39
5.0
 10
100.65588210846509
 20
56.407201606220681
 30
0.0
 11
100.1299821084651
 21
56.586601606220682
 31
0.0
  0
LINE
  5
5F1
  8
0
 39
5.0
 10
100.1299821084651
 20
56.586601606220682
 30
0.0
 11
99.573582108465175
 21
56.766301606220672
 31
0.0
  0
LINE
  5
5F2
  8
0
 39
5.0
 10
99.573582108465175
 20
56.766301606220672
 30
0.0
 11
98.986382108465179
 21
56.94570160622068
 31
0.0
  0
LINE
  5
5F3
  8
0
 39
5.0
 10
98.986382108465179
 20
56.94570160622068
 30
0.0
 11
98.368382108465184
 21
57.125401606220677
 31
0.0
  0
LINE
  5
5F4
  8
0
 39
5.0
 10
98.368382108465184
 20
57.125401606220677
 30
0.0
 11
97.719482108465186
 21
57.304801606220678
 31
0.0
  0
LINE
  5
5F5
  8
0
 39
5.0
 10
97.719482108465186
 20
57.304801606220678
 30
0.0
 11
97.719482108465186
 21
57.304801606220678
 31
0.0
  0
LINE
  5
5F6
  8
0
 39
5.0
 10
97.719482108465186
 20
57.304801606220678
 30
0.0
 11
97.502582108465177
 21
57.358001606220682
 31
0.0
  0
LINE
  5
5F7
  8
0
 39
5.0
 10
97.502582108465177
 20
57.358001606220682
 30
0.0
 11
97.318582108465165
 21
57.420501606220682
 31
0.0
  0
LINE
  5
5F8
  8
0
 39
5.0
 10
97.318582108465165
 20
57.420501606220682
 30
0.0
 11
97.166682108465167
 21
57.491001606220671
 31
0.0
  0
LINE
  5
5F9
  8
0
 39
5.0
 10
97.166682108465167
 20
57.491001606220671
 30
0.0
 11
97.045982108465168
 21
57.56770160622068
 31
0.0
  0
LINE
  5
5FA
  8
0
 39
5.0
 10
97.045982108465168
 20
57.56770160622068
 30
0.0
 11
96.955782108465201
 21
57.649701606220667
 31
0.0
  0
LINE
  5
5FB
  8
0
 39
5.0
 10
96.955782108465201
 20
57.649701606220667
 30
0.0
 11
96.894882108465197
 21
57.735001606220671
 31
0.0
  0
LINE
  5
5FC
  8
0
 39
5.0
 10
96.894882108465197
 20
57.735001606220671
 30
0.0
 11
96.862782108465154
 21
57.822601606220672
 31
0.0
  0
LINE
  5
5FD
  8
0
 39
5.0
 10
96.862782108465154
 20
57.822601606220672
 30
0.0
 11
96.858282108465175
 21
57.910701606220677
 31
0.0
  0
LINE
  5
5FE
  8
0
 39
5.0
 10
96.858282108465175
 20
57.910701606220677
 30
0.0
 11
96.88098210846519
 21
57.998201606220682
 31
0.0
  0
LINE
  5
5FF
  8
0
 39
5.0
 10
96.88098210846519
 20
57.998201606220682
 30
0.0
 11
96.929482108465166
 21
58.083401606220669
 31
0.0
  0
LINE
  5
600
  8
0
 39
5.0
 10
96.929482108465166
 20
58.083401606220669
 30
0.0
 11
97.003382108465175
 21
58.165101606220666
 31
0.0
  0
LINE
  5
601
  8
0
 39
5.0
 10
97.003382108465175
 20
58.165101606220666
 30
0.0
 11
97.101382108465174
 21
58.241401606220677
 31
0.0
  0
LINE
  5
602
  8
0
 39
5.0
 10
97.101382108465174
 20
58.241401606220677
 30
0.0
 11
97.222982108465175
 21
58.311301606220681
 31
0.0
  0
LINE
  5
603
  8
0
 39
5.0
 10
97.222982108465175
 20
58.311301606220681
 30
0.0
 11
97.367082108465169
 21
58.373101606220672
 31
0.0
  0
LINE
  5
604
  8
0
 39
5.0
 10
97.367082108465169
 20
58.373101606220672
 30
0.0
 11
97.532882108465174
 21
58.425501606220671
 31
0.0
  0
LINE
  5
605
  8
0
 39
5.0
 10
97.532882108465174
 20
58.425501606220671
 30
0.0
 11
97.719482108465186
 21
58.466901606220667
 31
0.0
  0
LINE
  5
606
  8
0
 39
5.0
 10
97.719482108465186
 20
58.466901606220667
 30
0.0
 11
102.8824821084651
 21
61.35580160622068
 31
0.0
  0
LINE
  5
607
  8
0
 39
5.0
 10
102.8824821084651
 20
61.35580160622068
 30
0.0
 11
102.8824821084651
 21
61.35580160622068
 31
0.0
  0
LINE
  5
608
  8
0
 39
5.0
 10
102.8824821084651
 20
61.35580160622068
 30
0.0
 11
103.13748210846509
 21
61.42600160622068
 31
0.0
  0
LINE
  5
609
  8
0
 39
5.0
 10
103.13748210846509
 20
61.42600160622068
 30
0.0
 11
103.3605821084651
 21
61.525901606220671
 31
0.0
  0
LINE
  5
60A
  8
0
 39
5.0
 10
103.3605821084651
 20
61.525901606220671
 30
0.0
 11
103.5515821084651
 21
61.651401606220666
 31
0.0
  0
LINE
  5
60B
  8
0
 39
5.0
 10
103.5515821084651
 20
61.651401606220666
 30
0.0
 11
103.7099821084651
 21
61.798101606220683
 31
0.0
  0
LINE
  5
60C
  8
0
 39
5.0
 10
103.7099821084651
 20
61.798101606220683
 30
0.0
 11
103.8359821084651
 21
61.962201606220667
 31
0.0
  0
LINE
  5
60D
  8
0
 39
5.0
 10
103.8359821084651
 20
61.962201606220667
 30
0.0
 11
103.9288821084651
 21
62.13910160622067
 31
0.0
  0
LINE
  5
60E
  8
0
 39
5.0
 10
103.9288821084651
 20
62.13910160622067
 30
0.0
 11
103.98848210846511
 21
62.324801606220667
 31
0.0
  0
LINE
  5
60F
  8
0
 39
5.0
 10
103.98848210846511
 20
62.324801606220667
 30
0.0
 11
104.0144821084651
 21
62.515001606220679
 31
0.0
  0
LINE
  5
610
  8
0
 39
5.0
 10
104.0144821084651
 20
62.515001606220679
 30
0.0
 11
104.00688210846511
 21
62.705801606220668
 31
0.0
  0
LINE
  5
611
  8
0
 39
5.0
 10
104.00688210846511
 20
62.705801606220668
 30
0.0
 11
103.96498210846509
 21
62.89260160622068
 31
0.0
  0
LINE
  5
612
  8
0
 39
5.0
 10
103.96498210846509
 20
62.89260160622068
 30
0.0
 11
103.8886821084651
 21
63.071501606220679
 31
0.0
  0
LINE
  5
613
  8
0
 39
5.0
 10
103.8886821084651
 20
63.071501606220679
 30
0.0
 11
103.7776821084651
 21
63.238101606220681
 31
0.0
  0
LINE
  5
614
  8
0
 39
5.0
 10
103.7776821084651
 20
63.238101606220681
 30
0.0
 11
103.6317821084651
 21
63.388401606220683
 31
0.0
  0
LINE
  5
615
  8
0
 39
5.0
 10
103.6317821084651
 20
63.388401606220683
 30
0.0
 11
103.4505821084651
 21
63.517901606220668
 31
0.0
  0
LINE
  5
616
  8
0
 39
5.0
 10
103.4505821084651
 20
63.517901606220668
 30
0.0
 11
103.23378210846511
 21
63.622701606220673
 31
0.0
  0
LINE
  5
617
  8
0
 39
5.0
 10
103.23378210846511
 20
63.622701606220673
 30
0.0
 11
102.9809821084651
 21
63.698401606220678
 31
0.0
  0
LINE
  5
618
  8
0
 39
5.0
 10
98.014782108465184
 20
67.632501606220671
 30
0.0
 11
103.7100821084651
 21
71.824801606220674
 31
0.0
  0
LINE
  5
619
  8
0
 39
5.0
 10
102.9809821084651
 20
63.698401606220678
 30
0.0
 11
98.014782108465184
 21
66.394801606220682
 31
0.0
  0
LINE
  5
61A
  8
0
 39
5.0
 10
97.159782108465166
 20
91.288101606220664
 30
0.0
 11
88.15978210846518
 21
91.288101606220678
 31
0.0
  0
LINE
  5
61B
  8
0
 39
5.0
 10
103.6077821084651
 20
74.126501606220671
 30
0.0
 11
103.41488210846509
 21
74.272101606220673
 31
0.0
  0
LINE
  5
61C
  8
0
 39
5.0
 10
103.7796821084651
 20
73.976901606220679
 30
0.0
 11
103.6077821084651
 21
74.126501606220671
 31
0.0
  0
LINE
  5
61D
  8
0
 39
5.0
 10
103.9303821084651
 20
73.824201606220683
 30
0.0
 11
103.7796821084651
 21
73.976901606220679
 31
0.0
  0
LINE
  5
61E
  8
0
 39
5.0
 10
104.0589821084651
 20
73.668801606220683
 30
0.0
 11
103.9303821084651
 21
73.824201606220683
 31
0.0
  0
LINE
  5
61F
  8
0
 39
5.0
 10
104.1653821084651
 20
73.511501606220676
 30
0.0
 11
104.0589821084651
 21
73.668801606220683
 31
0.0
  0
LINE
  5
620
  8
0
 39
5.0
 10
104.24878210846509
 20
73.35280160622068
 30
0.0
 11
104.1653821084651
 21
73.511501606220676
 31
0.0
  0
LINE
  5
621
  8
0
 39
5.0
 10
104.3089821084651
 20
73.193401606220675
 30
0.0
 11
104.24878210846509
 21
73.35280160622068
 31
0.0
  0
LINE
  5
622
  8
0
 39
5.0
 10
104.3449821084651
 20
73.033801606220678
 30
0.0
 11
104.3089821084651
 21
73.193401606220675
 31
0.0
  0
LINE
  5
623
  8
0
 39
5.0
 10
104.3567821084651
 20
72.874801606220672
 30
0.0
 11
104.3449821084651
 21
73.033801606220678
 31
0.0
  0
LINE
  5
624
  8
0
 39
5.0
 10
104.34338210846509
 20
72.716801606220685
 30
0.0
 11
104.3567821084651
 21
72.874801606220672
 31
0.0
  0
LINE
  5
625
  8
0
 39
5.0
 10
104.3046821084651
 20
72.56040160622068
 30
0.0
 11
104.34338210846509
 21
72.716801606220685
 31
0.0
  0
LINE
  5
626
  8
0
 39
5.0
 10
104.23978210846511
 20
72.406301606220666
 30
0.0
 11
104.3046821084651
 21
72.56040160622068
 31
0.0
  0
LINE
  5
627
  8
0
 39
5.0
 10
104.1484821084651
 20
72.25520160622068
 30
0.0
 11
104.23978210846511
 21
72.406301606220666
 31
0.0
  0
LINE
  5
628
  8
0
 39
5.0
 10
104.0301821084651
 20
72.107401606220677
 30
0.0
 11
104.1484821084651
 21
72.25520160622068
 31
0.0
  0
LINE
  5
629
  8
0
 39
5.0
 10
103.8842821084651
 20
71.963801606220684
 30
0.0
 11
104.0301821084651
 21
72.107401606220677
 31
0.0
  0
LINE
  5
62A
  8
0
 39
5.0
 10
103.7100821084651
 20
71.824801606220674
 30
0.0
 11
103.8842821084651
 21
71.963801606220684
 31
0.0
  0
LINE
  5
62B
  8
0
 39
5.0
 10
103.7100821084651
 20
71.824801606220674
 30
0.0
 11
103.7100821084651
 21
71.824801606220674
 31
0.0
  0
LINE
  5
62D
  8
0
 10
104.15978210846509
 20
53.788101606220678
 30
0.0
 11
88.15978210846518
 21
53.788101606220678
 31
0.0
  0
LINE
  5
62E
  8
0
 10
103.41488210846509
 20
74.272101606220673
 30
0.0
 11
97.15978210846518
 21
81.288101606220678
 31
0.0
  0
LINE
  5
62F
  8
0
 10
104.15978210846509
 20
54.430142182835731
 30
0.0
 11
104.15978210846509
 21
53.788101606220678
 31
0.0
  0
LINE
  5
630
  8
0
 10
92.15978210846518
 20
91.288101606220678
 30
0.0
 11
92.15978210846518
 21
78.288101606220678
 31
0.0
  0
LINE
  5
631
  8
0
 10
96.159782108465194
 20
57.70647701711119
 30
0.0
 11
88.15978210846518
 21
57.70647701711119
 31
0.0
  0
LINE
  5
632
  8
0
 10
96.159782108465194
 20
57.365433246845662
 30
0.0
 11
96.159782108465194
 21
58.407534319398977
 31
0.0
  0
LINE
  5
633
  8
0
 10
95.65978210846518
 20
78.288101606220678
 30
0.0
 11
88.15978210846518
 21
78.288101606220678
 31
0.0
  0
LINE
  5
634
  8
0
 10
95.65978210846518
 20
78.288101606220678
 30
0.0
 11
95.65978210846518
 21
74.095499138303595
 31
0.0
  0
LINE
  5
635
  8
0
 10
97.15978210846518
 20
81.288101606220678
 30
0.0
 11
97.15978210846518
 21
91.288101606220678
 31
0.0
  0
DIMENSION
  5
63A
  8
0
  2
*D1
 10
92.15978210846518
 20
101.59901301738719
 30
0.0
 11
88.15978210846518
 21
103.47401301738719
 31
0.0
 70
     0
  1
%%c<>
 13
84.159782108465166
 23
91.288101606220678
 33
0.0
 14
92.15978210846518
 24
91.288101606220678
 34
0.0
  0
DIMENSION
  5
654
  8
0
  2
*D2
 10
116.17911873651531
 20
81.288101606220678
 30
0.0
 11
114.30411873651521
 21
86.288101606220707
 31
0.0
 70
     0
 13
97.15978210846518
 23
91.288101606220678
 33
0.0
 14
97.15978210846518
 24
81.288101606220678
 34
0.0
 50
90.0
  0
DIMENSION
  5
661
  8
0
  2
*D3
 10
121.9771465777546
 20
78.288101606220664
 30
0.0
 11
120.1021465777546
 21
84.788101606220664
 31
0.0
 70
     0
 13
97.159782108465166
 23
91.288101606220664
 33
0.0
 14
95.65978210846518
 24
78.288101606220678
 34
0.0
 50
90.0
  0
DIMENSION
  5
66E
  8
0
  2
*D4
 10
127.9318776946189
 20
53.788101606220671
 30
0.0
 11
126.0568776946189
 21
72.538101606220692
 31
0.0
 70
     0
 13
97.15978210846518
 23
91.288101606220678
 33
0.0
 14
104.15978210846509
 24
53.788101606220678
 34
0.0
 50
90.0
  0
DIMENSION
  5
67B
  8
0
  2
*D5
 10
60.549394440832089
 20
74.288101606220678
 30
0.0
 11
58.674394440832081
 21
64.038101606220692
 31
0.0
 70
     0
 13
72.651741221953927
 23
53.788101606220671
 33
0.0
 14
74.898812980948449
 24
74.288101606220678
 34
0.0
 50
90.0
  0
DIMENSION
  5
689
  8
0
  2
*D6
 10
95.65978210846518
 20
107.1635285884163
 30
0.0
 11
88.15978210846518
 21
109.0385285884163
 31
0.0
 70
     0
  1
%%c<>
 13
80.65978210846518
 23
78.288101606220678
 33
0.0
 14
95.65978210846518
 24
78.288101606220678
 34
0.0
  0
DIMENSION
  5
696
  8
0
  2
*D7
 10
97.159782108465166
 20
112.63601881412271
 30
0.0
 11
88.15978210846518
 21
114.51101881412271
 31
0.0
 70
     0
  1
%%c<>
 13
79.159782108465166
 23
91.288101606220664
 33
0.0
 14
97.159782108465166
 24
91.288101606220664
 34
0.0
  0
DIMENSION
  5
6A4
  8
0
  2
*D8
 10
96.159782108465194
 20
45.514768856624897
 30
0.0
 11
88.15978210846518
 21
47.389768856624897
 31
0.0
 70
     0
  1
%%c<>
 13
80.159782108465166
 23
57.365433246845662
 33
0.0
 14
96.159782108465194
 24
57.365433246845662
 34
0.0
  0
DIMENSION
  5
6B1
  8
0
  2
*D9
 10
104.15978210846509
 20
41.031567416120453
 30
0.0
 11
88.15978210846518
 21
42.906567416120453
 31
0.0
 70
     0
  1
%%c<>
 13
72.15978210846518
 23
53.788101606220678
 33
0.0
 14
104.15978210846509
 24
53.788101606220678
 34
0.0
1001
ACAD
1000
DSTYLE
1002
{
1070
   271
1070
     6
1002
}
  0
LINE
  5
707
  8
0
 39
5.0
 10
88.15978210846518
 20
74.288101606220678
 30
0.0
 11
88.15978210846518
 21
73.161701606220674
 31
0.0
  0
LINE
  5
708
  8
0
 39
5.0
 10
88.15978210846518
 20
73.161701606220674
 30
0.0
 11
93.634282108465186
 21
73.161701606220674
 31
0.0
  0
LINE
  5
709
  8
0
 39
5.0
 10
93.634282108465186
 20
73.161701606220674
 30
0.0
 11
93.634282108465186
 21
73.161701606220674
 31
0.0
  0
LINE
  5
70A
  8
0
 39
5.0
 10
93.634282108465186
 20
73.161701606220674
 30
0.0
 11
93.828082108465196
 21
73.17440160622067
 31
0.0
  0
LINE
  5
70B
  8
0
 39
5.0
 10
93.828082108465196
 20
73.17440160622067
 30
0.0
 11
93.997482108465192
 21
73.210101606220675
 31
0.0
  0
LINE
  5
70C
  8
0
 39
5.0
 10
93.997482108465192
 20
73.210101606220675
 30
0.0
 11
94.144482108465184
 21
73.265701606220674
 31
0.0
  0
LINE
  5
70D
  8
0
 39
5.0
 10
94.144482108465184
 20
73.265701606220674
 30
0.0
 11
94.270282108465182
 21
73.337701606220676
 31
0.0
  0
LINE
  5
70E
  8
0
 39
5.0
 10
94.270282108465182
 20
73.337701606220676
 30
0.0
 11
94.377082108465189
 21
73.423001606220666
 31
0.0
  0
LINE
  5
70F
  8
0
 39
5.0
 10
94.377082108465189
 20
73.423001606220666
 30
0.0
 11
94.465882108465195
 21
73.518101606220668
 31
0.0
  0
LINE
  5
710
  8
0
 39
5.0
 10
94.465882108465195
 20
73.518101606220668
 30
0.0
 11
94.538682108465196
 21
73.619901606220665
 31
0.0
  0
LINE
  5
711
  8
0
 39
5.0
 10
94.538682108465196
 20
73.619901606220665
 30
0.0
 11
94.596782108465192
 21
73.724901606220669
 31
0.0
  0
LINE
  5
712
  8
0
 39
5.0
 10
94.596782108465192
 20
73.724901606220669
 30
0.0
 11
94.642282108465196
 21
73.830001606220677
 31
0.0
  0
LINE
  5
713
  8
0
 39
5.0
 10
94.642282108465196
 20
73.830001606220677
 30
0.0
 11
94.676382108465191
 21
73.93170160622067
 31
0.0
  0
LINE
  5
714
  8
0
 39
5.0
 10
94.676382108465191
 20
73.93170160622067
 30
0.0
 11
94.700882108465166
 21
74.026901606220676
 31
0.0
  0
LINE
  5
715
  8
0
 39
5.0
 10
94.700882108465166
 20
74.026901606220676
 30
0.0
 11
94.717182108465181
 21
74.112101606220676
 31
0.0
  0
LINE
  5
716
  8
0
 39
5.0
 10
94.717182108465181
 20
74.112101606220676
 30
0.0
 11
94.727182108465186
 21
74.184201606220654
 31
0.0
  0
LINE
  5
717
  8
0
 39
5.0
 10
94.727182108465186
 20
74.184201606220654
 30
0.0
 11
94.732182108465196
 21
74.239701606220677
 31
0.0
  0
LINE
  5
718
  8
0
 39
5.0
 10
94.732182108465196
 20
74.239701606220677
 30
0.0
 11
94.734082108465188
 21
74.275501606220672
 31
0.0
  0
LINE
  5
719
  8
0
 39
5.0
 10
94.734082108465188
 20
74.275501606220672
 30
0.0
 11
94.734282108465194
 21
74.288101606220678
 31
0.0
  0
LINE
  5
71B
  8
0
 39
5.0
 10
88.15978210846518
 20
74.288101606220678
 30
0.0
 11
88.15978210846518
 21
73.161701606220674
 31
0.0
  0
LINE
  5
71C
  8
0
 39
5.0
 10
88.15978210846518
 20
73.161701606220674
 30
0.0
 11
82.685282108465174
 21
73.161701606220674
 31
0.0
  0
LINE
  5
71D
  8
0
 39
5.0
 10
82.685282108465174
 20
73.161701606220674
 30
0.0
 11
82.685282108465174
 21
73.161701606220674
 31
0.0
  0
LINE
  5
71E
  8
0
 39
5.0
 10
82.685282108465174
 20
73.161701606220674
 30
0.0
 11
82.491482108465163
 21
73.17440160622067
 31
0.0
  0
LINE
  5
71F
  8
0
 39
5.0
 10
82.491482108465163
 20
73.17440160622067
 30
0.0
 11
82.322082108465167
 21
73.210101606220675
 31
0.0
  0
LINE
  5
720
  8
0
 39
5.0
 10
82.322082108465167
 20
73.210101606220675
 30
0.0
 11
82.175082108465176
 21
73.265701606220674
 31
0.0
  0
LINE
  5
721
  8
0
 39
5.0
 10
82.175082108465176
 20
73.265701606220674
 30
0.0
 11
82.049282108465164
 21
73.337701606220676
 31
0.0
  0
LINE
  5
722
  8
0
 39
5.0
 10
82.049282108465164
 20
73.337701606220676
 30
0.0
 11
81.942482108465171
 21
73.423001606220666
 31
0.0
  0
LINE
  5
723
  8
0
 39
5.0
 10
81.942482108465171
 20
73.423001606220666
 30
0.0
 11
81.853682108465165
 21
73.518101606220668
 31
0.0
  0
LINE
  5
724
  8
0
 39
5.0
 10
81.853682108465165
 20
73.518101606220668
 30
0.0
 11
81.780882108465164
 21
73.619901606220665
 31
0.0
  0
LINE
  5
725
  8
0
 39
5.0
 10
81.780882108465164
 20
73.619901606220665
 30
0.0
 11
81.722782108465168
 21
73.724901606220669
 31
0.0
  0
LINE
  5
726
  8
0
 39
5.0
 10
81.722782108465168
 20
73.724901606220669
 30
0.0
 11
81.677282108465164
 21
73.830001606220677
 31
0.0
  0
LINE
  5
727
  8
0
 39
5.0
 10
81.677282108465164
 20
73.830001606220677
 30
0.0
 11
81.643182108465155
 21
73.93170160622067
 31
0.0
  0
LINE
  5
728
  8
0
 39
5.0
 10
81.643182108465155
 20
73.93170160622067
 30
0.0
 11
81.618682108465194
 21
74.026901606220676
 31
0.0
  0
LINE
  5
729
  8
0
 39
5.0
 10
81.618682108465194
 20
74.026901606220676
 30
0.0
 11
81.602382108465179
 21
74.112101606220676
 31
0.0
  0
LINE
  5
72A
  8
0
 39
5.0
 10
81.602382108465179
 20
74.112101606220676
 30
0.0
 11
81.592382108465173
 21
74.184201606220654
 31
0.0
  0
LINE
  5
72B
  8
0
 39
5.0
 10
81.592382108465173
 20
74.184201606220654
 30
0.0
 11
81.587382108465164
 21
74.239701606220677
 31
0.0
  0
LINE
  5
72C
  8
0
 39
5.0
 10
81.587382108465164
 20
74.239701606220677
 30
0.0
 11
81.585482108465158
 21
74.275501606220672
 31
0.0
  0
LINE
  5
72D
  8
0
 39
5.0
 10
81.585482108465158
 20
74.275501606220672
 30
0.0
 11
81.585282108465165
 21
74.288101606220678
 31
0.0
  0
ENDSEC
  0
EOF
