  0
SECTION
  2
HEADER
  9
$ACADVER
  1
AC1009
  9
$INSBASE
 10
0.0
 20
0.0
 30
0.0
  9
$EXTMIN
 10
51.293630585351842
 20
46.474126721190842
 30
0.0
  9
$EXTMAX
 10
74.168765378849116
 20
76.578113338561693
 30
2.4219685759999998
  9
$LIMMIN
 10
0.0
 20
0.0
  9
$LIMMAX
 10
420.0
 20
297.0
  9
$ORTHOMODE
 70
     0
  9
$REGENMODE
 70
     1
  9
$FILLMODE
 70
     1
  9
$QTEXTMODE
 70
     0
  9
$MIRRTEXT
 70
     1
  9
$DRAGMODE
 70
     2
  9
$LTSCALE
 40
0.3
  9
$OSMODE
 70
    37
  9
$ATTMODE
 70
     1
  9
$TEXTSIZE
 40
2.5
  9
$TRACEWID
 40
1.0
  9
$TEXTSTYLE
  7
STANDARD
  9
$CLAYER
  8
2
  9
$CELTYPE
  6
BYLAYER
  9
$CECOLOR
 62
   256
  9
$DIMSCALE
 40
0.5
  9
$DIMASZ
 40
2.5
  9
$DIMEXO
 40
0.625
  9
$DIMDLI
 40
3.75
  9
$DIMRND
 40
0.0
  9
$DIMDLE
 40
0.0
  9
$DIMEXE
 40
1.25
  9
$DIMTP
 40
0.0
  9
$DIMTM
 40
0.0
  9
$DIMTXT
 40
2.5
  9
$DIMCEN
 40
2.5
  9
$DIMTSZ
 40
0.0
  9
$DIMTOL
 70
     0
  9
$DIMLIM
 70
     0
  9
$DIMTIH
 70
     0
  9
$DIMTOH
 70
     0
  9
$DIMSE1
 70
     0
  9
$DIMSE2
 70
     0
  9
$DIMTAD
 70
     1
  9
$DIMZIN
 70
     8
  9
$DIMBLK
  1

  9
$DIMASO
 70
     1
  9
$DIMSHO
 70
     1
  9
$DIMPOST
  1

  9
$DIMAPOST
  1

  9
$DIMALT
 70
     0
  9
$DIMALTD
 70
     3
  9
$DIMALTF
 40
0.03937007874016
  9
$DIMLFAC
 40
1.0
  9
$DIMTOFL
 70
     1
  9
$DIMTVP
 40
0.0
  9
$DIMTIX
 70
     0
  9
$DIMSOXD
 70
     0
  9
$DIMSAH
 70
     0
  9
$DIMBLK1
  1

  9
$DIMBLK2
  1

  9
$DIMSTYLE
  2
ISO-25
  9
$DIMCLRD
 70
     0
  9
$DIMCLRE
 70
     0
  9
$DIMCLRT
 70
     0
  9
$DIMTFAC
 40
1.0
  9
$DIMGAP
 40
0.625
  9
$LUNITS
 70
     2
  9
$LUPREC
 70
     4
  9
$SKETCHINC
 40
1.0
  9
$FILLETRAD
 40
10.0
  9
$AUNITS
 70
     0
  9
$AUPREC
 70
     0
  9
$MENU
  1
.
  9
$ELEVATION
 40
0.0
  9
$PELEVATION
 40
0.0
  9
$THICKNESS
 40
0.0
  9
$LIMCHECK
 70
     0
  9
$BLIPMODE
 70
     0
  9
$CHAMFERA
 40
10.0
  9
$CHAMFERB
 40
10.0
  9
$SKPOLY
 70
     0
  9
$TDCREATE
 40
2453439.4305862612
  9
$TDUPDATE
 40
2453551.908537291
  9
$TDINDWG
 40
0.0284550347
  9
$TDUSRTIMER
 40
0.028454919
  9
$USRTIMER
 70
     1
  9
$ANGBASE
 50
0.0
  9
$ANGDIR
 70
     0
  9
$PDMODE
 70
     0
  9
$PDSIZE
 40
0.0
  9
$PLINEWID
 40
0.0
  9
$COORDS
 70
     1
  9
$SPLFRAME
 70
     0
  9
$SPLINETYPE
 70
     6
  9
$SPLINESEGS
 70
     8
  9
$ATTDIA
 70
     0
  9
$ATTREQ
 70
     1
  9
$HANDLING
 70
-16383
  9
$HANDSEED
  5
657
  9
$SURFTAB1
 70
     6
  9
$SURFTAB2
 70
     6
  9
$SURFTYPE
 70
     6
  9
$SURFU
 70
     6
  9
$SURFV
 70
     6
  9
$UCSNAME
  2

  9
$UCSORG
 10
0.0
 20
0.0
 30
0.0
  9
$UCSXDIR
 10
1.0
 20
0.0
 30
0.0
  9
$UCSYDIR
 10
0.0
 20
1.0
 30
0.0
  9
$PUCSNAME
  2

  9
$PUCSORG
 10
0.0
 20
0.0
 30
0.0
  9
$PUCSXDIR
 10
1.0
 20
0.0
 30
0.0
  9
$PUCSYDIR
 10
0.0
 20
1.0
 30
0.0
  9
$USERI1
 70
     0
  9
$USERI2
 70
     0
  9
$USERI3
 70
     0
  9
$USERI4
 70
     0
  9
$USERI5
 70
     0
  9
$USERR1
 40
0.0
  9
$USERR2
 40
0.0
  9
$USERR3
 40
0.0
  9
$USERR4
 40
0.0
  9
$USERR5
 40
0.0
  9
$WORLDVIEW
 70
     1
  9
$SHADEDGE
 70
     3
  9
$SHADEDIF
 70
    70
  9
$TILEMODE
 70
     1
  9
$MAXACTVP
 70
    64
  9
$PLIMCHECK
 70
     0
  9
$PEXTMIN
 10
1.0000000000000000E+020
 20
1.0000000000000000E+020
 30
1.0000000000000000E+020
  9
$PEXTMAX
 10
-1.0000000000000000E+020
 20
-1.0000000000000000E+020
 30
-1.0000000000000000E+020
  9
$PLIMMIN
 10
0.0
 20
0.0
  9
$PLIMMAX
 10
420.0
 20
297.0
  9
$UNITMODE
 70
     0
  9
$VISRETAIN
 70
     1
  9
$PLINEGEN
 70
     0
  9
$PSLTSCALE
 70
     1
  0
ENDSEC
  0
SECTION
  2
TABLES
  0
TABLE
  2
VPORT
 70
     2
  0
VPORT
  2
*ACTIVE
 70
     0
 10
0.0
 20
0.0
 11
1.0
 21
1.0
 12
65.720192903330343
 22
61.755004551270751
 13
0.0
 23
0.0
 14
10.0
 24
10.0
 15
10.0
 25
10.0
 16
0.0
 26
0.0
 36
1.0
 17
0.0
 27
0.0
 37
0.0
 40
33.68710090075372
 41
2.5392405063291141
 42
50.0
 43
0.0
 44
0.0
 50
0.0
 51
0.0
 71
     0
 72
   100
 73
     1
 74
     3
 75
     0
 76
     0
 77
     0
 78
     0
  0
ENDTAB
  0
TABLE
  2
LTYPE
 70
     2
  0
LTYPE
  2
CONTINUOUS
 70
     0
  3
Solid line
 72
    65
 73
     0
 40
0.0
  0
LTYPE
  2
CENTER
 70
     0
  3
Center ____ _ ____ _ ____ _ ____ _ ____ _ ____
 72
    65
 73
     4
 40
50.799999999999997
 49
31.75
 49
-6.3499999999999988
 49
6.3499999999999988
 49
-6.3499999999999988
  0
ENDTAB
  0
TABLE
  2
LAYER
 70
     4
  0
LAYER
  2
0
 70
     0
 62
     7
  6
CONTINUOUS
  0
LAYER
  2
1
 70
     0
 62
     7
  6
CENTER
  0
LAYER
  2
2
 70
     0
 62
     7
  6
CONTINUOUS
  0
LAYER
  2
DEFPOINTS
 70
     0
 62
     7
  6
CONTINUOUS
  0
ENDTAB
  0
TABLE
  2
STYLE
 70
     3
  0
STYLE
  2
STANDARD
 70
     0
 40
0.0
 41
1.0
 50
0.0
 71
     0
 42
2.5
  3
txt
  4

  0
STYLE
  2
\U+00C9L\U+00C9R_\U+00C2S\U+00C2V\U+00C2B\U+00C2N
 70
     0
 40
1.0
 41
1.0
 50
0.0
 71
     0
 42
1.0
  3
\U+00E9l\U+00E9r \U+00E2S\U+00E2V\U+00E2b\U+00E2N
  4

  0
STYLE
  2

 70
     1
 40
0.0
 41
1.0
 50
0.0
 71
     0
 42
2.5
  3
ltypeshp.shx
  4

  0
ENDTAB
  0
TABLE
  2
VIEW
 70
     0
  0
ENDTAB
  0
TABLE
  2
UCS
 70
     0
  0
ENDTAB
  0
TABLE
  2
APPID
 70
     1
  0
APPID
  2
ACAD
 70
     0
  0
ENDTAB
  0
TABLE
  2
DIMSTYLE
 70
     2
  0
DIMSTYLE
  2
ISO-25
 70
     0
  3

  4

  5

  6

  7

 40
0.5
 41
2.5
 42
0.625
 43
3.75
 44
1.25
 45
0.0
 46
0.0
 47
0.0
 48
0.0
140
2.5
141
2.5
142
0.0
143
0.03937007874016
144
1.0
145
0.0
146
1.0
147
0.625
 71
     0
 72
     0
 73
     0
 74
     0
 75
     0
 76
     0
 77
     1
 78
     8
170
     0
171
     3
172
     1
173
     0
174
     0
175
     0
176
     0
177
     0
178
     0
  0
DIMSTYLE
  2
STANDARD
 70
     0
  3

  4

  5

  6

  7

 40
1.0
 41
0.18
 42
0.0625
 43
0.38
 44
0.18
 45
0.0
 46
0.0
 47
0.0
 48
0.0
140
0.18
141
0.09
142
0.0
143
25.399999999999999
144
1.0
145
0.0
146
1.0
147
0.09
 71
     0
 72
     0
 73
     1
 74
     1
 75
     0
 76
     0
 77
     0
 78
     0
170
     0
171
     2
172
     0
173
     0
174
     0
175
     0
176
     0
177
     0
178
     0
  0
ENDTAB
  0
ENDSEC
  0
SECTION
  2
BLOCKS
  0
BLOCK
  8
0
  2
$MODEL_SPACE
 70
     0
 10
0.0
 20
0.0
 30
0.0
  3
$MODEL_SPACE
  1

  0
ENDBLK
  5
21
  8
0
  0
BLOCK
 67
     1
  8
0
  2
$PAPER_SPACE
 70
     0
 10
0.0
 20
0.0
 30
0.0
  3
$PAPER_SPACE
  1

  0
ENDBLK
  5
1D
 67
     1
  8
0
  0
BLOCK
  8
0
  2
*D1
 70
     1
 10
0.0
 20
0.0
 30
0.0
  3
*D1
  1

  0
LINE
  5
5F4
  8
2
 62
     0
 10
56.877876794841498
 20
67.347775083766976
 30
0.0
 11
56.877876794841498
 21
71.239899839799733
 31
0.0
  0
LINE
  5
5F5
  8
2
 62
     0
 10
60.877876794841512
 20
67.347775083766976
 30
0.0
 11
60.877876794841512
 21
71.239899839799733
 31
0.0
  0
LINE
  5
5F6
  8
2
 62
     0
 10
58.127876794841498
 20
70.614899839799733
 30
0.0
 11
59.627876794841512
 21
70.614899839799733
 31
0.0
  0
SOLID
  5
5F7
  8
2
 62
     0
 10
58.127876794841498
 20
70.823233173133076
 30
0.0
 11
58.127876794841498
 21
70.406566506466419
 31
0.0
 12
56.877876794841498
 22
70.614899839799733
 32
0.0
 13
56.877876794841498
 23
70.614899839799733
 33
0.0
  0
SOLID
  5
5F8
  8
2
 62
     0
 10
59.627876794841512
 20
70.823233173133076
 30
0.0
 11
59.627876794841512
 21
70.406566506466419
 31
0.0
 12
60.877876794841512
 22
70.614899839799733
 32
0.0
 13
60.877876794841512
 23
70.614899839799733
 33
0.0
  0
INSERT
  5
5F9
  8
2
  2
*U11
 10
0.0
 20
0.0
 30
0.0
  0
POINT
  5
5FA
  8
DEFPOINTS
 62
     0
 10
56.877876794841498
 20
67.035275083766976
 30
0.0
  0
POINT
  5
5FB
  8
DEFPOINTS
 62
     0
 10
60.877876794841512
 20
67.035275083766976
 30
0.0
  0
POINT
  5
5FC
  8
DEFPOINTS
 62
     0
 10
60.877876794841512
 20
70.614899839799733
 30
0.0
  0
ENDBLK
  5
566
  8
0
  0
BLOCK
  8
0
  2
*D2
 70
     1
 10
0.0
 20
0.0
 30
0.0
  3
*D2
  1

  0
LINE
  5
5FD
  8
2
 62
     0
 10
57.877876794841498
 20
62.149785758056893
 30
0.0
 11
57.877876794841498
 21
52.973807664733911
 31
0.0
  0
LINE
  5
5FE
  8
2
 62
     0
 10
59.877876794841491
 20
62.1497857580569
 30
0.0
 11
59.877876794841491
 21
52.973807664733911
 31
0.0
  0
LINE
  5
5FF
  8
2
 62
     0
 10
56.627876794841498
 20
53.598807664733911
 30
0.0
 11
55.377876794841498
 21
53.598807664733911
 31
0.0
  0
LINE
  5
600
  8
2
 62
     0
 10
61.127876794841491
 20
53.598807664733911
 30
0.0
 11
65.086210128174827
 21
53.598807664733911
 31
0.0
  0
LINE
  5
601
  8
2
 62
     0
 10
57.877876794841498
 20
53.598807664733911
 30
0.0
 11
59.877876794841491
 21
53.598807664733911
 31
0.0
  0
SOLID
  5
602
  8
2
 62
     0
 10
56.627876794841498
 20
53.80714099806724
 30
0.0
 11
56.627876794841498
 21
53.390474331400569
 31
0.0
 12
57.877876794841498
 22
53.598807664733911
 32
0.0
 13
57.877876794841498
 23
53.598807664733911
 33
0.0
  0
SOLID
  5
603
  8
2
 62
     0
 10
61.127876794841491
 20
53.80714099806724
 30
0.0
 11
61.127876794841491
 21
53.390474331400569
 31
0.0
 12
59.877876794841491
 22
53.598807664733911
 32
0.0
 13
59.877876794841491
 23
53.598807664733911
 33
0.0
  0
INSERT
  5
604
  8
2
  2
*U12
 10
0.0
 20
0.0
 30
0.0
  0
POINT
  5
605
  8
DEFPOINTS
 62
     0
 10
57.877876794841498
 20
62.462285758056893
 30
0.0
  0
POINT
  5
606
  8
DEFPOINTS
 62
     0
 10
59.877876794841491
 20
62.4622857580569
 30
0.0
  0
POINT
  5
607
  8
DEFPOINTS
 62
     0
 10
59.877876794841491
 20
53.598807664733911
 30
0.0
  0
ENDBLK
  5
575
  8
0
  0
BLOCK
  8
0
  2
*D3
 70
     1
 10
0.0
 20
0.0
 30
0.0
  3
*D3
  1

  0
LINE
  5
622
  8
2
 62
     0
 10
56.127876794908062
 20
57.222775083843707
 30
0.0
 11
56.127876794908062
 21
50.260034322868812
 31
0.0
  0
LINE
  5
623
  8
2
 62
     0
 10
61.627876794774949
 20
57.222775083843707
 30
0.0
 11
61.627876794774949
 21
50.260034322868812
 31
0.0
  0
LINE
  5
624
  8
2
 62
     0
 10
57.377876794908062
 20
50.885034322868812
 30
0.0
 11
60.377876794774949
 21
50.885034322868812
 31
0.0
  0
SOLID
  5
625
  8
2
 62
     0
 10
57.377876794908062
 20
51.09336765620214
 30
0.0
 11
57.377876794908062
 21
50.676700989535469
 31
0.0
 12
56.127876794908062
 22
50.885034322868812
 32
0.0
 13
56.127876794908062
 23
50.885034322868812
 33
0.0
  0
SOLID
  5
626
  8
2
 62
     0
 10
60.377876794774949
 20
51.09336765620214
 30
0.0
 11
60.377876794774949
 21
50.676700989535469
 31
0.0
 12
61.627876794774949
 22
50.885034322868812
 32
0.0
 13
61.627876794774949
 23
50.885034322868812
 33
0.0
  0
INSERT
  5
627
  8
2
  2
*U13
 10
0.0
 20
0.0
 30
0.0
  0
POINT
  5
628
  8
DEFPOINTS
 62
     0
 10
56.127876794908062
 20
57.535275083843707
 30
0.0
  0
POINT
  5
629
  8
DEFPOINTS
 62
     0
 10
61.627876794774949
 20
57.535275083843707
 30
0.0
  0
POINT
  5
62A
  8
DEFPOINTS
 62
     0
 10
61.627876794774949
 20
50.885034322868812
 30
0.0
  0
ENDBLK
  5
582
  8
0
  0
BLOCK
  8
0
  2
*D4
 70
     1
 10
0.0
 20
0.0
 30
0.0
  3
*D4
  1

  0
LINE
  5
5EB
  8
2
 62
     0
 10
55.877876794841512
 20
65.347775083766976
 30
0.0
 11
55.877876794841512
 21
73.44025666473182
 31
0.0
  0
LINE
  5
5EC
  8
2
 62
     0
 10
61.877876794841498
 20
65.347775083766976
 30
0.0
 11
61.877876794841498
 21
73.44025666473182
 31
0.0
  0
LINE
  5
5ED
  8
2
 62
     0
 10
57.127876794841512
 20
72.81525666473182
 30
0.0
 11
60.627876794841498
 21
72.81525666473182
 31
0.0
  0
SOLID
  5
5EE
  8
2
 62
     0
 10
57.127876794841512
 20
73.023589998065134
 30
0.0
 11
57.127876794841512
 21
72.606923331398491
 31
0.0
 12
55.877876794841512
 22
72.81525666473182
 32
0.0
 13
55.877876794841512
 23
72.81525666473182
 33
0.0
  0
SOLID
  5
5EF
  8
2
 62
     0
 10
60.627876794841498
 20
73.023589998065134
 30
0.0
 11
60.627876794841498
 21
72.606923331398491
 31
0.0
 12
61.877876794841498
 22
72.81525666473182
 32
0.0
 13
61.877876794841498
 23
72.81525666473182
 33
0.0
  0
INSERT
  5
5F0
  8
2
  2
*U10
 10
0.0
 20
0.0
 30
0.0
  0
POINT
  5
5F1
  8
DEFPOINTS
 62
     0
 10
55.877876794841512
 20
65.035275083766976
 30
0.0
  0
POINT
  5
5F2
  8
DEFPOINTS
 62
     0
 10
61.877876794841498
 20
65.035275083766976
 30
0.0
  0
POINT
  5
5F3
  8
DEFPOINTS
 62
     0
 10
61.877876794841498
 20
72.81525666473182
 30
0.0
  0
ENDBLK
  5
598
  8
0
  0
BLOCK
  8
0
  2
*D5
 70
     1
 10
0.0
 20
0.0
 30
0.0
  3
*D5
  1

  0
LINE
  5
5E2
  8
2
 62
     0
 10
55.127876794841512
 20
67.347775083766976
 30
0.0
 11
55.127876794841512
 21
75.640613338561693
 31
0.0
  0
LINE
  5
5E3
  8
2
 62
     0
 10
62.627876794841512
 20
67.347775083766976
 30
0.0
 11
62.627876794841512
 21
75.640613338561693
 31
0.0
  0
LINE
  5
5E4
  8
2
 62
     0
 10
56.377876794841512
 20
75.015613338561693
 30
0.0
 11
61.377876794841512
 21
75.015613338561693
 31
0.0
  0
SOLID
  5
5E5
  8
2
 62
     0
 10
56.377876794841512
 20
75.223946671895021
 30
0.0
 11
56.377876794841512
 21
74.807280005228364
 31
0.0
 12
55.127876794841512
 22
75.015613338561693
 32
0.0
 13
55.127876794841512
 23
75.015613338561693
 33
0.0
  0
SOLID
  5
5E6
  8
2
 62
     0
 10
61.377876794841512
 20
75.223946671895021
 30
0.0
 11
61.377876794841512
 21
74.807280005228364
 31
0.0
 12
62.627876794841512
 22
75.015613338561693
 32
0.0
 13
62.627876794841512
 23
75.015613338561693
 33
0.0
  0
INSERT
  5
5E7
  8
2
  2
*U9
 10
0.0
 20
0.0
 30
0.0
  0
POINT
  5
5E8
  8
DEFPOINTS
 62
     0
 10
55.127876794841512
 20
67.035275083766976
 30
0.0
  0
POINT
  5
5E9
  8
DEFPOINTS
 62
     0
 10
62.627876794841512
 20
67.035275083766976
 30
0.0
  0
POINT
  5
5EA
  8
DEFPOINTS
 62
     0
 10
62.627876794841512
 20
75.015613338561693
 30
0.0
  0
ENDBLK
  5
5A5
  8
0
  0
BLOCK
  8
0
  2
*D6
 70
     1
 10
0.0
 20
0.0
 30
0.0
  3
*D6
  1

  0
LINE
  5
5B1
  8
2
 62
     0
 10
62.940376794841512
 20
67.035275083766976
 30
0.0
 11
69.247951570376642
 21
67.035275083766976
 31
0.0
  0
LINE
  5
5B2
  8
2
 62
     0
 10
62.190376794841498
 20
65.035275083766976
 30
0.0
 11
69.247951570376642
 21
65.035275083766976
 31
0.0
  0
LINE
  5
5B3
  8
2
 62
     0
 10
68.622951570376642
 20
68.285275083766976
 30
0.0
 11
68.622951570376642
 21
69.535275083766976
 31
0.0
  0
LINE
  5
5B4
  8
2
 62
     0
 10
68.622951570376642
 20
63.785275083766983
 30
0.0
 11
68.622951570376642
 21
62.535275083766983
 31
0.0
  0
LINE
  5
5B5
  8
2
 62
     0
 10
68.622951570376642
 20
67.035275083766976
 30
0.0
 11
68.622951570376642
 21
65.035275083766976
 31
0.0
  0
SOLID
  5
5B6
  8
2
 62
     0
 10
68.414618237043314
 20
68.285275083766976
 30
0.0
 11
68.831284903709971
 21
68.285275083766976
 31
0.0
 12
68.622951570376642
 22
67.035275083766976
 32
0.0
 13
68.622951570376642
 23
67.035275083766976
 33
0.0
  0
SOLID
  5
5B7
  8
2
 62
     0
 10
68.414618237043314
 20
63.785275083766983
 30
0.0
 11
68.831284903709971
 21
63.785275083766983
 31
0.0
 12
68.622951570376642
 22
65.035275083766976
 32
0.0
 13
68.622951570376642
 23
65.035275083766976
 33
0.0
  0
TEXT
  5
5B8
  8
2
 62
     0
 10
68.310451570376628
 20
65.618608417100319
 30
0.0
 40
1.25
  1
2
 50
90.0
  0
POINT
  5
5B9
  8
DEFPOINTS
 62
     0
 10
62.627876794841512
 20
67.035275083766976
 30
0.0
  0
POINT
  5
5BA
  8
DEFPOINTS
 62
     0
 10
61.877876794841498
 20
65.035275083766976
 30
0.0
  0
POINT
  5
5BB
  8
DEFPOINTS
 62
     0
 10
68.622951570376642
 20
65.035275083766976
 30
0.0
  0
ENDBLK
  5
5BD
  8
0
  0
BLOCK
  8
0
  2
*D7
 70
     1
 10
0.0
 20
0.0
 30
0.0
  3
*D7
  1

  0
LINE
  5
5C0
  8
2
 62
     0
 10
62.933432350306461
 20
67.035275083766976
 30
0.0
 11
71.671635935490258
 21
67.035275083766976
 31
0.0
  0
LINE
  5
5C1
  8
2
 62
     0
 10
62.190376794841498
 20
63.035275083766969
 30
0.0
 11
71.671635935490258
 21
63.035275083766969
 31
0.0
  0
LINE
  5
5C2
  8
2
 62
     0
 10
71.046635935490258
 20
65.785275083766976
 30
0.0
 11
71.046635935490258
 21
64.285275083766976
 31
0.0
  0
SOLID
  5
5C3
  8
2
 62
     0
 10
70.838302602156929
 20
65.785275083766976
 30
0.0
 11
71.254969268823587
 21
65.785275083766976
 31
0.0
 12
71.046635935490258
 22
67.035275083766976
 32
0.0
 13
71.046635935490258
 23
67.035275083766976
 33
0.0
  0
SOLID
  5
5C4
  8
2
 62
     0
 10
70.838302602156929
 20
64.285275083766976
 30
0.0
 11
71.254969268823587
 21
64.285275083766976
 31
0.0
 12
71.046635935490258
 22
63.035275083766969
 32
0.0
 13
71.046635935490258
 23
63.035275083766969
 33
0.0
  0
TEXT
  5
5C5
  8
2
 62
     0
 10
70.734135935490244
 20
64.618608417100319
 30
0.0
 40
1.25
  1
4
 50
90.0
  0
POINT
  5
5C6
  8
DEFPOINTS
 62
     0
 10
62.620932350306461
 20
67.035275083766976
 30
0.0
  0
POINT
  5
5C7
  8
DEFPOINTS
 62
     0
 10
61.877876794841498
 20
63.035275083766969
 30
0.0
  0
POINT
  5
5C8
  8
DEFPOINTS
 62
     0
 10
71.046635935490258
 20
63.035275083766969
 30
0.0
  0
ENDBLK
  5
5CA
  8
0
  0
BLOCK
  8
0
  2
*D8
 70
     1
 10
0.0
 20
0.0
 30
0.0
  3
*D8
  1

  0
LINE
  5
5D9
  8
2
 62
     0
 10
62.933432350306461
 20
67.035275083766976
 30
0.0
 11
74.168765378849116
 21
67.035275083766976
 31
0.0
  0
LINE
  5
5DA
  8
2
 62
     0
 10
61.940376794774949
 20
57.535275083843707
 30
0.0
 11
74.168765378849116
 21
57.535275083843707
 31
0.0
  0
LINE
  5
5DB
  8
2
 62
     0
 10
73.543765378849116
 20
65.785275083766976
 30
0.0
 11
73.543765378849116
 21
58.785275083843707
 31
0.0
  0
SOLID
  5
5DC
  8
2
 62
     0
 10
73.335432045515773
 20
65.785275083766976
 30
0.0
 11
73.752098712182445
 21
65.785275083766976
 31
0.0
 12
73.543765378849116
 22
67.035275083766976
 32
0.0
 13
73.543765378849116
 23
67.035275083766976
 33
0.0
  0
SOLID
  5
5DD
  8
2
 62
     0
 10
73.335432045515773
 20
58.785275083843707
 30
0.0
 11
73.752098712182445
 21
58.785275083843707
 31
0.0
 12
73.543765378849116
 22
57.535275083843707
 32
0.0
 13
73.543765378849116
 23
57.535275083843707
 33
0.0
  0
TEXT
  5
5DE
  8
2
 62
     0
 10
73.231265378849102
 20
61.035275083805352
 30
0.0
 40
1.25
  1
9.5
 50
90.0
  0
POINT
  5
5DF
  8
DEFPOINTS
 62
     0
 10
62.620932350306461
 20
67.035275083766976
 30
0.0
  0
POINT
  5
5E0
  8
DEFPOINTS
 62
     0
 10
61.627876794774949
 20
57.535275083843707
 30
0.0
  0
POINT
  5
5E1
  8
DEFPOINTS
 62
     0
 10
73.543765378849116
 20
57.535275083843707
 30
0.0
  0
ENDBLK
  5
5D8
  8
0
  0
BLOCK
  8
0
  2
*U9
 70
     1
 10
0.0
 20
0.0
 30
0.0
  3
*U9
  1

  0
TEXT
  5
63F
  8
2
 62
     0
 10
57.002876794841512
 20
75.328113338561693
 30
0.0
 40
1.25
  1
\U+2205
  0
TEXT
  5
640
  8
2
 62
     0
 10
58.252876794841512
 20
75.328113338561693
 30
0.0
 40
1.25
  1
7.5
  0
ENDBLK
  5
642
  8
0
  0
BLOCK
  8
0
  2
*U10
 70
     1
 10
0.0
 20
0.0
 30
0.0
  3
*U10
  1

  0
TEXT
  5
644
  8
2
 62
     0
 10
57.836210128174841
 20
73.12775666473182
 30
0.0
 40
1.25
  1
\U+2205
  0
TEXT
  5
645
  8
2
 62
     0
 10
59.086210128174841
 20
73.12775666473182
 30
0.0
 40
1.25
  1
6
  0
ENDBLK
  5
647
  8
0
  0
BLOCK
  8
0
  2
*U11
 70
     1
 10
0.0
 20
0.0
 30
0.0
  3
*U11
  1

  0
TEXT
  5
649
  8
2
 62
     0
 10
57.836210128174841
 20
70.927399839799733
 30
0.0
 40
1.25
  1
\U+2205
  0
TEXT
  5
64A
  8
2
 62
     0
 10
59.086210128174841
 20
70.927399839799733
 30
0.0
 40
1.25
  1
4
  0
ENDBLK
  5
64C
  8
0
  0
BLOCK
  8
0
  2
*U12
 70
     1
 10
0.0
 20
0.0
 30
0.0
  3
*U12
  1

  0
TEXT
  5
64E
  8
2
 62
     0
 10
62.690376794841491
 20
53.911307664733911
 30
0.0
 40
1.25
  1
\U+2205
  0
TEXT
  5
64F
  8
2
 62
     0
 10
63.940376794841491
 20
53.911307664733911
 30
0.0
 40
1.25
  1
2
  0
ENDBLK
  5
651
  8
0
  0
BLOCK
  8
0
  2
*U13
 70
     1
 10
0.0
 20
0.0
 30
0.0
  3
*U13
  1

  0
TEXT
  5
653
  8
2
 62
     0
 10
57.002876794841512
 20
51.197534322868812
 30
0.0
 40
1.25
  1
\U+2205
  0
TEXT
  5
654
  8
2
 62
     0
 10
58.252876794841512
 20
51.197534322868812
 30
0.0
 40
1.25
  1
5.5
  0
ENDBLK
  5
656
  8
0
  0
ENDSEC
  0
SECTION
  2
ENTITIES
  0
TEXT
  5
EA
  8
2
 10
51.293630619380608
 20
46.595076435476543
 30
0.0
 40
1.2699720000000001
  1
No. 21.005.088._
 41
0.9999999267283786
 51
-0.0000015352344868
  7
\U+00C9L\U+00C9R_\U+00C2S\U+00C2V\U+00C2B\U+00C2N
  0
LINE
  5
1A2
  8
0
 39
2.4219685759999998
 10
57.350099017100703
 20
65.035323523138501
 30
0.0
 11
57.350099017100703
 21
65.035323523138501
 31
0.0
  0
LINE
  5
1A3
  8
0
 39
2.4219685759999998
 10
56.127876794908062
 20
63.035275083766969
 30
0.0
 11
57.877876794841512
 21
63.035275083766983
 31
0.0
  0
LINE
  5
1A5
  8
0
 39
2.4219685759999998
 10
58.877876794841512
 20
65.035275083766976
 30
0.0
 11
56.127876794908062
 21
65.035275083766976
 31
0.0
  0
LINE
  5
1A7
  8
0
 39
2.4219685759999998
 10
56.127876794908062
 20
63.035275083766969
 30
0.0
 11
56.127876794908062
 21
63.035275083766969
 31
0.0
  0
LINE
  5
1AD
  8
0
 39
2.4219685759999998
 10
58.877876794841512
 20
62.462285758056893
 30
0.0
 11
57.877876794841512
 21
62.4622857580569
 31
0.0
  0
LINE
  5
1AF
  8
0
 39
2.4219685759999998
 10
56.448739191856554
 20
61.202668341050803
 30
0.0
 11
57.598205478026152
 21
60.725540531578808
 31
0.0
  0
LINE
  5
1B0
  8
0
 39
2.4219685759999998
 10
57.598205478026152
 20
60.725540531578808
 30
0.0
 11
57.598205478026152
 21
60.725540531578808
 31
0.0
  0
LINE
  5
1B1
  8
0
 39
2.4219685759999998
 10
57.598205478026152
 20
60.725540531578808
 30
0.0
 11
57.647613636976551
 21
60.695604999979459
 31
0.0
  0
LINE
  5
1B2
  8
0
 39
2.4219685759999998
 10
57.647613636976551
 20
60.695604999979459
 30
0.0
 11
57.690724677629348
 21
60.66518507466489
 31
0.0
  0
LINE
  5
1B3
  8
0
 39
2.4219685759999998
 10
57.690724677629348
 20
60.66518507466489
 30
0.0
 11
57.727344842498461
 21
60.634280755635132
 31
0.0
  0
LINE
  5
1B4
  8
0
 39
2.4219685759999998
 10
57.727344842498461
 20
60.634280755635132
 30
0.0
 11
57.75752257095543
 21
60.602698285404088
 31
0.0
  0
LINE
  5
1B5
  8
0
 39
2.4219685759999998
 10
57.75752257095543
 20
60.602698285404088
 30
0.0
 11
57.781112544885659
 21
60.570437663971767
 31
0.0
  0
LINE
  5
1B6
  8
0
 39
2.4219685759999998
 10
57.781112544885659
 20
60.570437663971767
 30
0.0
 11
57.798211643032232
 21
60.537305133852087
 31
0.0
  0
LINE
  5
1B7
  8
0
 39
2.4219685759999998
 10
57.798211643032232
 20
60.537305133852087
 30
0.0
 11
57.808674547280539
 21
60.503203816302019
 31
0.0
  0
LINE
  5
1B8
  8
0
 39
2.4219685759999998
 10
57.808674547280539
 20
60.503203816302019
 30
0.0
 11
57.81254969700214
 21
60.467939953835447
 31
0.0
  0
LINE
  5
1B9
  8
0
 39
2.4219685759999998
 10
57.81254969700214
 20
60.467939953835447
 30
0.0
 11
57.80959489533943
 21
60.431610425195458
 31
0.0
  0
LINE
  5
1BA
  8
0
 39
2.4219685759999998
 10
57.80959489533943
 20
60.431610425195458
 30
0.0
 11
57.80000389977846
 21
60.393876154781367
 31
0.0
  0
LINE
  5
1BB
  8
0
 39
2.4219685759999998
 10
57.80000389977846
 20
60.393876154781367
 30
0.0
 11
57.78353451346166
 21
60.354785581964727
 31
0.0
  0
LINE
  5
1BC
  8
0
 39
2.4219685759999998
 10
57.78353451346166
 20
60.354785581964727
 30
0.0
 11
57.760332054503579
 21
60.314096509887939
 31
0.0
  0
LINE
  5
1BD
  8
0
 39
2.4219685759999998
 10
57.760332054503579
 20
60.314096509887939
 30
0.0
 11
57.730202765418149
 21
60.271857377922487
 31
0.0
  0
LINE
  5
1BE
  8
0
 39
2.4219685759999998
 10
57.730202765418149
 20
60.271857377922487
 30
0.0
 11
57.693146646205342
 21
60.227777549839303
 31
0.0
  0
LINE
  5
1BF
  8
0
 39
2.4219685759999998
 10
57.693146646205342
 20
60.227777549839303
 30
0.0
 11
57.649115257493662
 21
60.18185702563833
 31
0.0
  0
LINE
  5
1C0
  8
0
 39
2.4219685759999998
 10
57.649115257493662
 20
60.18185702563833
 30
0.0
 11
57.598205478026152
 21
60.133902047833537
 31
0.0
  0
LINE
  5
1C1
  8
0
 39
2.4219685759999998
 10
57.598205478026152
 20
60.133902047833537
 30
0.0
 11
56.505994528993178
 21
59.313193776113792
 31
0.0
  0
LINE
  5
1C2
  8
0
 39
2.4219685759999998
 10
56.505994528993178
 20
59.313193776113792
 30
0.0
 11
57.598205478026152
 21
58.797895741884041
 31
0.0
  0
LINE
  5
1C3
  8
0
 39
2.4219685759999998
 10
57.598205478026152
 20
58.797895741884041
 30
0.0
 11
57.598205478026152
 21
58.797895741884041
 31
0.0
  0
LINE
  5
1C4
  8
0
 39
2.4219685759999998
 10
57.598205478026152
 20
58.797895741884041
 30
0.0
 11
57.660789146029977
 21
58.771157208805
 31
0.0
  0
LINE
  5
1C5
  8
0
 39
2.4219685759999998
 10
57.660789146029977
 20
58.771157208805
 30
0.0
 11
57.715041242132379
 21
58.743110812694923
 31
0.0
  0
LINE
  5
1C6
  8
0
 39
2.4219685759999998
 10
57.715041242132379
 20
58.743110812694923
 30
0.0
 11
57.760961766333338
 21
58.713901871668348
 31
0.0
  0
LINE
  5
1C7
  8
0
 39
2.4219685759999998
 10
57.760961766333338
 20
58.713901871668348
 30
0.0
 11
57.798599158004393
 21
58.683481946353787
 31
0.0
  0
LINE
  5
1C8
  8
0
 39
2.4219685759999998
 10
57.798599158004393
 20
58.683481946353787
 30
0.0
 11
57.827808099030939
 21
58.65189947612275
 31
0.0
  0
LINE
  5
1C9
  8
0
 39
2.4219685759999998
 10
57.827808099030939
 20
58.65189947612275
 30
0.0
 11
57.848733907527588
 21
58.619057582232188
 31
0.0
  0
LINE
  5
1CA
  8
0
 39
2.4219685759999998
 10
57.848733907527588
 20
58.619057582232188
 30
0.0
 11
57.861231265379743
 21
58.585053143425149
 31
0.0
  0
LINE
  5
1CB
  8
0
 39
2.4219685759999998
 10
57.861231265379743
 20
58.585053143425149
 30
0.0
 11
57.865445490701987
 21
58.549837720330117
 31
0.0
  0
LINE
  5
1CC
  8
0
 39
2.4219685759999998
 10
57.865445490701987
 20
58.549837720330117
 30
0.0
 11
57.861231265379743
 21
58.513508191690107
 31
0.0
  0
LINE
  5
1CD
  8
0
 39
2.4219685759999998
 10
57.861231265379743
 20
58.513508191690107
 30
0.0
 11
57.848733907527588
 21
58.475919239390592
 31
0.0
  0
LINE
  5
1CE
  8
0
 39
2.4219685759999998
 10
57.848733907527588
 20
58.475919239390592
 30
0.0
 11
57.827808099030939
 21
58.437167742174587
 31
0.0
  0
LINE
  5
1CF
  8
0
 39
2.4219685759999998
 10
57.827808099030939
 20
58.437167742174587
 30
0.0
 11
57.798599158004393
 21
58.397205260670589
 31
0.0
  0
LINE
  5
1D0
  8
0
 39
2.4219685759999998
 10
57.798599158004393
 20
58.397205260670589
 30
0.0
 11
57.760961766333338
 21
58.356080234250108
 31
0.0
  0
LINE
  5
1D1
  8
0
 39
2.4219685759999998
 10
57.760961766333338
 20
58.356080234250108
 30
0.0
 11
57.715041242132379
 21
58.313695784170108
 31
0.0
  0
LINE
  5
1D2
  8
0
 39
2.4219685759999998
 10
57.715041242132379
 20
58.313695784170108
 30
0.0
 11
57.660789146029977
 21
58.270100349802121
 31
0.0
  0
LINE
  5
1D3
  8
0
 39
2.4219685759999998
 10
57.660789146029977
 20
58.270100349802121
 30
0.0
 11
57.598205478026152
 21
58.225342370517637
 31
0.0
  0
LINE
  5
1D4
  8
0
 39
2.4219685759999998
 10
57.598205478026152
 20
58.225342370517637
 30
0.0
 11
57.598205478026152
 21
58.225342370517637
 31
0.0
  0
LINE
  5
1D5
  8
0
 39
2.4219685759999998
 10
57.598205478026152
 20
58.225342370517637
 30
0.0
 11
57.514647562154138
 21
58.195697475147398
 31
0.0
  0
LINE
  5
1D6
  8
0
 39
2.4219685759999998
 10
57.514647562154138
 20
58.195697475147398
 30
0.0
 11
57.431089646282139
 21
58.164260323030909
 31
0.0
  0
LINE
  5
1D7
  8
0
 39
2.4219685759999998
 10
57.431089646282139
 20
58.164260323030909
 30
0.0
 11
57.347531730410132
 21
58.130982474796667
 31
0.0
  0
LINE
  5
1D8
  8
0
 39
2.4219685759999998
 10
57.347531730410132
 20
58.130982474796667
 30
0.0
 11
57.26397381453814
 21
58.095863930444672
 31
0.0
  0
LINE
  5
1D9
  8
0
 39
2.4219685759999998
 10
57.26397381453814
 20
58.095863930444672
 30
0.0
 11
57.180415898666141
 21
58.059050008089471
 31
0.0
  0
LINE
  5
1DA
  8
0
 39
2.4219685759999998
 10
57.180415898666141
 20
58.059050008089471
 30
0.0
 11
57.096857982794148
 21
58.02039538961651
 31
0.0
  0
LINE
  5
1DB
  8
0
 39
2.4219685759999998
 10
57.096857982794148
 20
58.02039538961651
 30
0.0
 11
57.013300066922142
 21
57.979948514397307
 31
0.0
  0
LINE
  5
1DC
  8
0
 39
2.4219685759999998
 10
57.013300066922142
 20
57.979948514397307
 30
0.0
 11
56.929839029793179
 21
57.937660943060351
 31
0.0
  0
LINE
  5
1DD
  8
0
 39
2.4219685759999998
 10
56.929839029793179
 20
57.937660943060351
 30
0.0
 11
56.846281113921179
 21
57.893677993720189
 31
0.0
  0
LINE
  5
1DE
  8
0
 39
2.4219685759999998
 10
56.846281113921179
 20
57.893677993720189
 30
0.0
 11
56.762723198049187
 21
57.847854348262267
 31
0.0
  0
LINE
  5
1DF
  8
0
 39
2.4219685759999998
 10
56.762723198049187
 20
57.847854348262267
 30
0.0
 11
56.679165282177181
 21
57.80023844605811
 31
0.0
  0
LINE
  5
1E0
  8
0
 39
2.4219685759999998
 10
56.679165282177181
 20
57.80023844605811
 30
0.0
 11
56.595607366305188
 21
57.750830287107711
 31
0.0
  0
LINE
  5
1E1
  8
0
 39
2.4219685759999998
 10
56.595607366305188
 20
57.750830287107711
 30
0.0
 11
56.512049450433182
 21
57.699678310782588
 31
0.0
  0
LINE
  5
1E2
  8
0
 39
2.4219685759999998
 10
56.512049450433182
 20
57.699678310782588
 30
0.0
 11
56.428491534561182
 21
57.646685638339711
 31
0.0
  0
LINE
  5
1E3
  8
0
 39
2.4219685759999998
 10
56.428491534561182
 20
57.646685638339711
 30
0.0
 11
56.344933618689183
 21
57.591900709150593
 31
0.0
  0
LINE
  5
1E4
  8
0
 39
2.4219685759999998
 10
56.344933618689183
 20
57.591900709150593
 30
0.0
 11
56.261472581560227
 21
57.535275083843707
 31
0.0
  0
LINE
  5
1E8
  8
0
 10
58.877876794841512
 20
61.202668341050803
 30
0.0
 11
56.448739191856554
 21
61.202668341050803
 31
0.0
  0
LINE
  5
1E9
  8
0
 10
58.877876794841512
 20
60.467939953835447
 30
0.0
 11
57.81254969700214
 21
60.467939953835447
 31
0.0
  0
LINE
  5
1EA
  8
0
 10
58.877876794841512
 20
59.313193776113792
 30
0.0
 11
56.505994528993178
 21
59.313193776113792
 31
0.0
  0
LINE
  5
1EB
  8
0
 10
58.877876794841512
 20
58.513508191690107
 30
0.0
 11
57.861231265379743
 21
58.513508191690107
 31
0.0
  0
LINE
  5
1F7
  8
0
 39
2.4219685759999998
 10
58.877876794841512
 20
67.035275083766976
 30
0.0
 11
55.134821239376549
 21
67.035275083766976
 31
0.0
  0
LINE
  5
1F9
  8
0
 39
2.4219685759999998
 10
55.134821239376549
 20
63.473796714137542
 30
0.0
 11
55.134821239376549
 21
63.473796714137542
 31
0.0
  0
LINE
  5
1FA
  8
0
 39
2.4219685759999998
 10
55.127876794841512
 20
63.54328107008881
 30
0.0
 11
55.143249690021023
 21
63.389463768321207
 31
0.0
  0
LINE
  5
1FB
  8
0
 39
2.4219685759999998
 10
55.143249690021023
 20
63.389463768321207
 30
0.0
 11
55.154390745470621
 21
63.310313835257531
 31
0.0
  0
LINE
  5
1FC
  8
0
 39
2.4219685759999998
 10
55.154390745470621
 20
63.310313835257531
 30
0.0
 11
55.168050648239259
 21
63.23639535431802
 31
0.0
  0
LINE
  5
1FD
  8
0
 39
2.4219685759999998
 10
55.168050648239259
 20
63.23639535431802
 30
0.0
 11
55.18427783769846
 21
63.167417689273542
 31
0.0
  0
LINE
  5
1FE
  8
0
 39
2.4219685759999998
 10
55.18427783769846
 20
63.167417689273542
 30
0.0
 11
55.202926995733662
 21
63.103429279495607
 31
0.0
  0
LINE
  5
1FF
  8
0
 39
2.4219685759999998
 10
55.202926995733662
 20
63.103429279495607
 30
0.0
 11
55.223998122344859
 21
63.044187928126647
 31
0.0
  0
LINE
  5
200
  8
0
 39
2.4219685759999998
 10
55.223998122344859
 20
63.044187928126647
 30
0.0
 11
55.247394338789022
 21
62.98969363516666
 31
0.0
  0
LINE
  5
201
  8
0
 39
2.4219685759999998
 10
55.247394338789022
 20
62.98969363516666
 30
0.0
 11
55.27316408443766
 21
62.939655764386487
 31
0.0
  0
LINE
  5
202
  8
0
 39
2.4219685759999998
 10
55.27316408443766
 20
62.939655764386487
 30
0.0
 11
55.301065162433183
 21
62.894268073272258
 31
0.0
  0
LINE
  5
203
  8
0
 39
2.4219685759999998
 10
55.301065162433183
 20
62.894268073272258
 30
0.0
 11
55.331194451518627
 21
62.853143046851777
 31
0.0
  0
LINE
  5
204
  8
0
 39
2.4219685759999998
 10
55.331194451518627
 20
62.853143046851777
 30
0.0
 11
55.363455072950941
 21
62.816329124496583
 31
0.0
  0
LINE
  5
205
  8
0
 39
2.4219685759999998
 10
55.363455072950941
 20
62.816329124496583
 30
0.0
 11
55.397798587358622
 21
62.783535669977539
 31
0.0
  0
LINE
  5
206
  8
0
 39
2.4219685759999998
 10
55.397798587358622
 20
62.783535669977539
 30
0.0
 11
55.434079676627107
 21
62.754908001409213
 31
0.0
  0
LINE
  5
207
  8
0
 39
2.4219685759999998
 10
55.434079676627107
 20
62.754908001409213
 30
0.0
 11
55.472395219499433
 21
62.730058603819458
 31
0.0
  0
LINE
  5
208
  8
0
 39
2.4219685759999998
 10
55.472395219499433
 20
62.730058603819458
 30
0.0
 11
55.512599897861023
 21
62.70908435595129
 31
0.0
  0
LINE
  5
209
  8
0
 39
2.4219685759999998
 10
55.512599897861023
 20
62.70908435595129
 30
0.0
 11
55.554693711711913
 21
62.691694621575607
 31
0.0
  0
LINE
  5
20A
  8
0
 39
2.4219685759999998
 10
55.554693711711913
 20
62.691694621575607
 30
0.0
 11
57.04473721903863
 21
62.233651924482487
 31
0.0
  0
LINE
  5
20B
  8
0
 39
2.4219685759999998
 10
57.04473721903863
 20
62.233651924482487
 30
0.0
 11
56.33781303107574
 21
61.584176831142329
 31
0.0
  0
LINE
  5
20C
  8
0
 39
2.4219685759999998
 10
56.33781303107574
 20
61.584176831142329
 30
0.0
 11
56.33781303107574
 21
61.584176831142329
 31
0.0
  0
LINE
  5
20D
  8
0
 39
2.4219685759999998
 10
56.33781303107574
 20
61.584176831142329
 30
0.0
 11
56.283028101886629
 21
61.538450064427451
 31
0.0
  0
LINE
  5
20E
  8
0
 39
2.4219685759999998
 10
56.283028101886629
 20
61.538450064427451
 30
0.0
 11
56.236671623341977
 21
61.49044664725114
 31
0.0
  0
LINE
  5
20F
  8
0
 39
2.4219685759999998
 10
56.236671623341977
 20
61.49044664725114
 30
0.0
 11
56.198695156070301
 21
61.440650973328573
 31
0.0
  0
LINE
  5
210
  8
0
 39
2.4219685759999998
 10
56.198695156070301
 20
61.440650973328573
 30
0.0
 11
56.169147139443112
 21
61.389450557631939
 31
0.0
  0
LINE
  5
211
  8
0
 39
2.4219685759999998
 10
56.169147139443112
 20
61.389450557631939
 30
0.0
 11
56.147785376602783
 21
61.337426672619451
 31
0.0
  0
LINE
  5
212
  8
0
 39
2.4219685759999998
 10
56.147785376602783
 20
61.337426672619451
 30
0.0
 11
56.13470674629238
 21
61.284918393891772
 31
0.0
  0
LINE
  5
213
  8
0
 39
2.4219685759999998
 10
56.13470674629238
 20
61.284918393891772
 30
0.0
 11
56.129765930397348
 21
61.232410115164093
 31
0.0
  0
LINE
  5
214
  8
0
 39
2.4219685759999998
 10
56.129765930397348
 20
61.232410115164093
 30
0.0
 11
56.132962928917657
 21
61.180289351408568
 31
0.0
  0
LINE
  5
215
  8
0
 39
2.4219685759999998
 10
56.132962928917657
 20
61.180289351408568
 30
0.0
 11
56.144103984367263
 21
61.129185814454978
 31
0.0
  0
LINE
  5
216
  8
0
 39
2.4219685759999998
 10
56.144103984367263
 20
61.129185814454978
 30
0.0
 11
56.163334414860699
 21
61.079341701160892
 31
0.0
  0
LINE
  5
217
  8
0
 39
2.4219685759999998
 10
56.163334414860699
 20
61.079341701160892
 30
0.0
 11
56.190460462911901
 21
61.031338283984581
 31
0.0
  0
LINE
  5
218
  8
0
 39
2.4219685759999998
 10
56.190460462911901
 20
61.031338283984581
 30
0.0
 11
56.225530567892392
 21
60.985466199155127
 31
0.0
  0
LINE
  5
219
  8
0
 39
2.4219685759999998
 10
56.225530567892392
 20
60.985466199155127
 30
0.0
 11
56.26835097231605
 21
60.942403597873863
 31
0.0
  0
LINE
  5
21A
  8
0
 39
2.4219685759999998
 10
56.26835097231605
 20
60.942403597873863
 30
0.0
 11
56.319018554925982
 21
60.902344237626821
 31
0.0
  0
LINE
  5
21B
  8
0
 39
2.4219685759999998
 10
56.319018554925982
 20
60.902344237626821
 30
0.0
 11
56.377387997607578
 21
60.865966269615292
 31
0.0
  0
LINE
  5
21C
  8
0
 39
2.4219685759999998
 10
56.377387997607578
 20
60.865966269615292
 30
0.0
 11
56.443459300360857
 21
60.833511890696897
 31
0.0
  0
LINE
  5
21D
  8
0
 39
2.4219685759999998
 10
56.443459300360857
 20
60.833511890696897
 30
0.0
 11
57.388220802486941
 21
60.381136600071613
 31
0.0
  0
LINE
  5
21E
  8
0
 39
2.4219685759999998
 10
57.388220802486941
 20
60.381136600071613
 30
0.0
 11
56.433238592970142
 21
59.827232386740413
 31
0.0
  0
LINE
  5
21F
  8
0
 39
2.4219685759999998
 10
56.433238592970142
 20
59.827232386740413
 30
0.0
 11
56.433238592970142
 21
59.827232386740413
 31
0.0
  0
LINE
  5
220
  8
0
 39
2.4219685759999998
 10
56.433238592970142
 20
59.827232386740413
 30
0.0
 11
56.367942320161177
 21
59.782183771226812
 31
0.0
  0
LINE
  5
221
  8
0
 39
2.4219685759999998
 10
56.367942320161177
 20
59.782183771226812
 30
0.0
 11
56.312091724798627
 21
59.737861746286008
 31
0.0
  0
LINE
  5
222
  8
0
 39
2.4219685759999998
 10
56.312091724798627
 20
59.737861746286008
 30
0.0
 11
56.265589928139427
 21
59.694217872546488
 31
0.0
  0
LINE
  5
223
  8
0
 39
2.4219685759999998
 10
56.265589928139427
 20
59.694217872546488
 30
0.0
 11
56.228582248298139
 21
59.651058392522167
 31
0.0
  0
LINE
  5
224
  8
0
 39
2.4219685759999998
 10
56.228582248298139
 20
59.651058392522167
 30
0.0
 11
56.200874927788703
 21
59.608431745584582
 31
0.0
  0
LINE
  5
225
  8
0
 39
2.4219685759999998
 10
56.200874927788703
 20
59.608431745584582
 30
0.0
 11
56.182613284725662
 21
59.566047295504568
 31
0.0
  0
LINE
  5
226
  8
0
 39
2.4219685759999998
 10
56.182613284725662
 20
59.566047295504568
 30
0.0
 11
56.173700440365977
 21
59.371224143194752
 31
0.0
  0
LINE
  5
227
  8
0
 39
2.4219685759999998
 10
56.173700440365977
 20
59.371224143194752
 30
0.0
 11
56.1742332734527
 21
59.329178768715387
 31
0.0
  0
LINE
  5
228
  8
0
 39
2.4219685759999998
 10
56.1742332734527
 20
59.329178768715387
 30
0.0
 11
56.184066465871268
 21
59.287278712350599
 31
0.0
  0
LINE
  5
229
  8
0
 39
2.4219685759999998
 10
56.184066465871268
 20
59.287278712350599
 30
0.0
 11
56.203393775107742
 21
59.24513645912819
 31
0.0
  0
LINE
  5
22A
  8
0
 39
2.4219685759999998
 10
56.203393775107742
 20
59.24513645912819
 30
0.0
 11
56.232021443676061
 21
59.202848887791227
 31
0.0
  0
LINE
  5
22B
  8
0
 39
2.4219685759999998
 10
56.232021443676061
 20
59.202848887791227
 30
0.0
 11
56.270143229062299
 21
59.160125362110591
 31
0.0
  0
LINE
  5
22C
  8
0
 39
2.4219685759999998
 10
56.270143229062299
 20
59.160125362110591
 30
0.0
 11
56.317565373780383
 21
59.117062760829313
 31
0.0
  0
LINE
  5
22D
  8
0
 39
2.4219685759999998
 10
56.317565373780383
 20
59.117062760829313
 30
0.0
 11
56.374433195944867
 21
59.073322008346757
 31
0.0
  0
LINE
  5
22E
  8
0
 39
2.4219685759999998
 10
56.374433195944867
 20
59.073322008346757
 30
0.0
 11
56.440649816812709
 21
59.028951544034442
 31
0.0
  0
LINE
  5
22F
  8
0
 39
2.4219685759999998
 10
56.440649816812709
 20
59.028951544034442
 30
0.0
 11
56.516360554498462
 21
58.983757610406279
 31
0.0
  0
LINE
  5
230
  8
0
 39
2.4219685759999998
 10
56.516360554498462
 20
58.983757610406279
 30
0.0
 11
57.350099017100703
 21
58.490547929589638
 31
0.0
  0
LINE
  5
231
  8
0
 39
2.4219685759999998
 10
57.350099017100703
 20
58.490547929589638
 30
0.0
 11
57.350099017100703
 21
58.490547929589638
 31
0.0
  0
LINE
  5
232
  8
0
 39
2.4219685759999998
 10
57.350099017100703
 20
58.490547929589638
 30
0.0
 11
57.262665951507103
 21
58.438911559549311
 31
0.0
  0
LINE
  5
233
  8
0
 39
2.4219685759999998
 10
57.262665951507103
 20
58.438911559549311
 30
0.0
 11
57.176153233972393
 21
58.386354841450121
 31
0.0
  0
LINE
  5
234
  8
0
 39
2.4219685759999998
 10
57.176153233972393
 20
58.386354841450121
 30
0.0
 11
57.090512425125027
 21
58.333023093406588
 31
0.0
  0
LINE
  5
235
  8
0
 39
2.4219685759999998
 10
57.090512425125027
 20
58.333023093406588
 30
0.0
 11
57.006034161194137
 21
58.278674118561149
 31
0.0
  0
LINE
  5
236
  8
0
 39
2.4219685759999998
 10
57.006034161194137
 20
58.278674118561149
 30
0.0
 11
56.922718442179743
 21
58.223453235028352
 31
0.0
  0
LINE
  5
237
  8
0
 39
2.4219685759999998
 10
56.922718442179743
 20
58.223453235028352
 30
0.0
 11
56.840807464939431
 21
58.167118245950597
 31
0.0
  0
LINE
  5
238
  8
0
 39
2.4219685759999998
 10
56.840807464939431
 20
58.167118245950597
 30
0.0
 11
56.760398108216229
 21
58.10971759069939
 31
0.0
  0
LINE
  5
239
  8
0
 39
2.4219685759999998
 10
56.760398108216229
 20
58.10971759069939
 30
0.0
 11
56.681684129496219
 21
58.051154390531707
 31
0.0
  0
LINE
  5
23A
  8
0
 39
2.4219685759999998
 10
56.681684129496219
 20
58.051154390531707
 30
0.0
 11
56.604665528779421
 21
57.991477084819067
 31
0.0
  0
LINE
  5
23B
  8
0
 39
2.4219685759999998
 10
56.604665528779421
 20
57.991477084819067
 30
0.0
 11
56.529632942294931
 21
57.930540355446922
 31
0.0
  0
LINE
  5
23C
  8
0
 39
2.4219685759999998
 10
56.529632942294931
 20
57.930540355446922
 30
0.0
 11
56.456683248785822
 21
57.868295763043719
 31
0.0
  0
LINE
  5
23D
  8
0
 39
2.4219685759999998
 10
56.456683248785822
 20
57.868295763043719
 30
0.0
 11
56.38596176636662
 21
57.804597989494908
 31
0.0
  0
LINE
  5
23E
  8
0
 39
2.4219685759999998
 10
56.38596176636662
 20
57.804597989494908
 30
0.0
 11
56.317516934408857
 21
57.739592352915068
 31
0.0
  0
LINE
  5
23F
  8
0
 39
2.4219685759999998
 10
56.317516934408857
 20
57.739592352915068
 30
0.0
 11
56.251639389141658
 21
57.673036656446598
 31
0.0
  0
LINE
  5
240
  8
0
 39
2.4219685759999998
 10
56.251639389141658
 20
57.673036656446598
 30
0.0
 11
56.188329130565023
 21
57.604979339460989
 31
0.0
  0
LINE
  5
241
  8
0
 39
2.4219685759999998
 10
56.188329130565023
 20
57.604979339460989
 30
0.0
 11
56.127876794908062
 21
57.535275083843707
 31
0.0
  0
LINE
  5
242
  8
0
 39
2.4219685759999998
 10
56.127876794908062
 20
57.535275083843707
 30
0.0
 11
58.877876794841512
 21
57.535275083843707
 31
0.0
  0
LINE
  5
429
  8
0
 10
56.877876794841498
 20
67.035275083766976
 30
0.0
 11
56.877876794841498
 21
65.035275083766976
 31
0.0
  0
LINE
  5
42B
  8
0
 10
55.877876794841512
 20
65.035275083766976
 30
0.0
 11
55.877876794841512
 21
63.035275083766969
 31
0.0
  0
LINE
  5
42C
  8
0
 10
55.127876794841512
 20
63.54328107008881
 30
0.0
 11
55.127876794841512
 21
67.035275083766976
 31
0.0
  0
LINE
  5
44F
  8
0
 10
55.877876794841512
 20
65.035275083766976
 30
0.0
 11
58.877876794841512
 21
65.035275083766976
 31
0.0
  0
LINE
  5
450
  8
0
 10
55.877876794841512
 20
63.035275083766969
 30
0.0
 11
57.861037507893677
 21
63.035275083766969
 31
0.0
  0
LINE
  5
456
  8
0
 10
57.877876794841498
 20
63.035275083766969
 30
0.0
 11
57.877876794841498
 21
62.462285758056893
 31
0.0
  0
LINE
  5
457
  8
0
 39
2.4219685759999998
 10
57.877876794841498
 20
63.035275083766983
 30
0.0
 11
58.877876794841512
 21
63.035275083766969
 31
0.0
  0
LINE
  5
458
  8
0
 10
57.877876794841498
 20
63.035275083766969
 30
0.0
 11
58.877876794841512
 21
63.035275083766969
 31
0.0
  0
LINE
  5
459
  8
0
 10
57.877876794841498
 20
62.462285758056893
 30
0.0
 11
56.448739191856554
 21
61.202668341050803
 31
0.0
  0
LINE
  5
4C2
  8
1
 10
58.877876794841512
 20
67.535275083766976
 30
0.0
 11
58.877876794841512
 21
57.035275083843722
 31
0.0
  0
LINE
  5
4C3
  8
0
 39
2.4219685759999998
 10
59.877876794841498
 20
63.035275083766983
 30
0.0
 11
58.877876794841512
 21
63.035275083766969
 31
0.0
  0
LINE
  5
4C4
  8
0
 39
2.4219685759999998
 10
61.627876794774949
 20
57.535275083843707
 30
0.0
 11
58.877876794841512
 21
57.535275083843707
 31
0.0
  0
LINE
  5
4C5
  8
0
 39
2.4219685759999998
 10
61.567424459117987
 20
57.604979339460989
 30
0.0
 11
61.627876794774949
 21
57.535275083843707
 31
0.0
  0
LINE
  5
4C6
  8
0
 39
2.4219685759999998
 10
61.504114200541338
 20
57.673036656446598
 30
0.0
 11
61.567424459117987
 21
57.604979339460989
 31
0.0
  0
LINE
  5
4C7
  8
0
 39
2.4219685759999998
 10
61.438236655274153
 20
57.739592352915068
 30
0.0
 11
61.504114200541338
 21
57.673036656446598
 31
0.0
  0
LINE
  5
4C8
  8
0
 39
2.4219685759999998
 10
61.36979182331639
 20
57.804597989494908
 30
0.0
 11
61.438236655274153
 21
57.739592352915068
 31
0.0
  0
LINE
  5
4C9
  8
0
 39
2.4219685759999998
 10
61.299070340897181
 20
57.868295763043719
 30
0.0
 11
61.36979182331639
 21
57.804597989494908
 31
0.0
  0
LINE
  5
4CA
  8
0
 39
2.4219685759999998
 10
61.226120647388072
 20
57.930540355446922
 30
0.0
 11
61.299070340897181
 21
57.868295763043719
 31
0.0
  0
LINE
  5
4CB
  8
0
 39
2.4219685759999998
 10
61.151088060903582
 20
57.991477084819067
 30
0.0
 11
61.226120647388072
 21
57.930540355446922
 31
0.0
  0
LINE
  5
4CC
  8
0
 39
2.4219685759999998
 10
61.074069460186792
 20
58.051154390531707
 30
0.0
 11
61.151088060903582
 21
57.991477084819067
 31
0.0
  0
LINE
  5
4CD
  8
0
 39
2.4219685759999998
 10
60.995355481466781
 20
58.10971759069939
 30
0.0
 11
61.074069460186792
 21
58.051154390531707
 31
0.0
  0
LINE
  5
4CE
  8
0
 39
2.4219685759999998
 10
60.91494612474358
 20
58.167118245950597
 30
0.0
 11
60.995355481466781
 21
58.10971759069939
 31
0.0
  0
LINE
  5
4CF
  8
0
 39
2.4219685759999998
 10
60.83303514750326
 20
58.223453235028352
 30
0.0
 11
60.91494612474358
 21
58.167118245950597
 31
0.0
  0
LINE
  5
4D0
  8
0
 39
2.4219685759999998
 10
60.749719428488859
 20
58.278674118561149
 30
0.0
 11
60.83303514750326
 21
58.223453235028352
 31
0.0
  0
LINE
  5
4D1
  8
0
 39
2.4219685759999998
 10
60.66524116455799
 20
58.333023093406588
 30
0.0
 11
60.749719428488859
 21
58.278674118561149
 31
0.0
  0
LINE
  5
4D2
  8
0
 39
2.4219685759999998
 10
60.579600355710618
 20
58.386354841450121
 30
0.0
 11
60.66524116455799
 21
58.333023093406588
 31
0.0
  0
LINE
  5
4D3
  8
0
 39
2.4219685759999998
 10
60.493087638175908
 20
58.438911559549311
 30
0.0
 11
60.579600355710618
 21
58.386354841450121
 31
0.0
  0
LINE
  5
4D4
  8
0
 39
2.4219685759999998
 10
60.405654572582307
 20
58.490547929589638
 30
0.0
 11
60.493087638175908
 21
58.438911559549311
 31
0.0
  0
LINE
  5
4D5
  8
0
 39
2.4219685759999998
 10
60.405654572582307
 20
58.490547929589638
 30
0.0
 11
60.405654572582307
 21
58.490547929589638
 31
0.0
  0
LINE
  5
4D6
  8
0
 39
2.4219685759999998
 10
61.239393035184541
 20
58.983757610406279
 30
0.0
 11
60.405654572582307
 21
58.490547929589638
 31
0.0
  0
LINE
  5
4D7
  8
0
 39
2.4219685759999998
 10
61.315103772870302
 20
59.028951544034442
 30
0.0
 11
61.239393035184541
 21
58.983757610406279
 31
0.0
  0
LINE
  5
4D8
  8
0
 39
2.4219685759999998
 10
61.38132039373815
 20
59.073322008346757
 30
0.0
 11
61.315103772870302
 21
59.028951544034442
 31
0.0
  0
LINE
  5
4D9
  8
0
 39
2.4219685759999998
 10
61.43818821590262
 20
59.117062760829313
 30
0.0
 11
61.38132039373815
 21
59.073322008346757
 31
0.0
  0
LINE
  5
4DA
  8
0
 39
2.4219685759999998
 10
61.485610360620697
 20
59.160125362110591
 30
0.0
 11
61.43818821590262
 21
59.117062760829313
 31
0.0
  0
LINE
  5
4DB
  8
0
 39
2.4219685759999998
 10
61.523732146006942
 20
59.202848887791227
 30
0.0
 11
61.485610360620697
 21
59.160125362110591
 31
0.0
  0
LINE
  5
4DC
  8
0
 39
2.4219685759999998
 10
61.552359814575269
 20
59.24513645912819
 30
0.0
 11
61.523732146006942
 21
59.202848887791227
 31
0.0
  0
LINE
  5
4DD
  8
0
 39
2.4219685759999998
 10
61.571687123811742
 20
59.287278712350599
 30
0.0
 11
61.552359814575269
 21
59.24513645912819
 31
0.0
  0
LINE
  5
4DE
  8
0
 39
2.4219685759999998
 10
61.581520316230311
 20
59.329178768715387
 30
0.0
 11
61.571687123811742
 21
59.287278712350599
 31
0.0
  0
LINE
  5
4DF
  8
0
 39
2.4219685759999998
 10
61.582053149317019
 20
59.371224143194752
 30
0.0
 11
61.581520316230311
 21
59.329178768715387
 31
0.0
  0
LINE
  5
4E0
  8
0
 39
2.4219685759999998
 10
61.573140304957349
 20
59.566047295504568
 30
0.0
 11
61.582053149317019
 21
59.371224143194752
 31
0.0
  0
LINE
  5
4E1
  8
0
 39
2.4219685759999998
 10
61.554878661894307
 20
59.608431745584582
 30
0.0
 11
61.573140304957349
 21
59.566047295504568
 31
0.0
  0
LINE
  5
4E2
  8
0
 39
2.4219685759999998
 10
61.527171341384872
 20
59.651058392522167
 30
0.0
 11
61.554878661894307
 21
59.608431745584582
 31
0.0
  0
LINE
  5
4E3
  8
0
 39
2.4219685759999998
 10
61.490163661543583
 20
59.694217872546488
 30
0.0
 11
61.527171341384872
 21
59.651058392522167
 31
0.0
  0
LINE
  5
4E4
  8
0
 39
2.4219685759999998
 10
61.443661864884383
 20
59.737861746286008
 30
0.0
 11
61.490163661543583
 21
59.694217872546488
 31
0.0
  0
LINE
  5
4E5
  8
0
 39
2.4219685759999998
 10
61.387811269521819
 20
59.782183771226812
 30
0.0
 11
61.443661864884383
 21
59.737861746286008
 31
0.0
  0
LINE
  5
4E6
  8
0
 39
2.4219685759999998
 10
61.322514996712869
 20
59.827232386740413
 30
0.0
 11
61.387811269521819
 21
59.782183771226812
 31
0.0
  0
LINE
  5
4E7
  8
0
 39
2.4219685759999998
 10
61.322514996712869
 20
59.827232386740413
 30
0.0
 11
61.322514996712869
 21
59.827232386740413
 31
0.0
  0
LINE
  5
4E8
  8
0
 39
2.4219685759999998
 10
60.367532787196069
 20
60.381136600071613
 30
0.0
 11
61.322514996712869
 21
59.827232386740413
 31
0.0
  0
LINE
  5
4E9
  8
0
 39
2.4219685759999998
 10
61.312294289322153
 20
60.833511890696897
 30
0.0
 11
60.367532787196069
 21
60.381136600071613
 31
0.0
  0
LINE
  5
4EA
  8
0
 39
2.4219685759999998
 10
61.378365592075419
 20
60.865966269615292
 30
0.0
 11
61.312294289322153
 21
60.833511890696897
 31
0.0
  0
LINE
  5
4EB
  8
0
 39
2.4219685759999998
 10
61.436735034757028
 20
60.902344237626821
 30
0.0
 11
61.378365592075419
 21
60.865966269615292
 31
0.0
  0
LINE
  5
4EC
  8
0
 39
2.4219685759999998
 10
61.487402617366953
 20
60.942403597873863
 30
0.0
 11
61.436735034757028
 21
60.902344237626821
 31
0.0
  0
LINE
  5
4ED
  8
0
 39
2.4219685759999998
 10
61.530223021790633
 20
60.985466199155127
 30
0.0
 11
61.487402617366953
 21
60.942403597873863
 31
0.0
  0
LINE
  5
4EE
  8
0
 39
2.4219685759999998
 10
61.56529312677111
 20
61.031338283984581
 30
0.0
 11
61.530223021790633
 21
60.985466199155127
 31
0.0
  0
LINE
  5
4EF
  8
0
 39
2.4219685759999998
 10
61.592419174822297
 20
61.079341701160892
 30
0.0
 11
61.56529312677111
 21
61.031338283984581
 31
0.0
  0
LINE
  5
4F0
  8
0
 39
2.4219685759999998
 10
61.611649605315748
 20
61.129185814454978
 30
0.0
 11
61.592419174822297
 21
61.079341701160892
 31
0.0
  0
LINE
  5
4F1
  8
0
 39
2.4219685759999998
 10
61.622790660765347
 20
61.180289351408568
 30
0.0
 11
61.611649605315748
 21
61.129185814454978
 31
0.0
  0
LINE
  5
4F2
  8
0
 39
2.4219685759999998
 10
61.625987659285663
 20
61.232410115164093
 30
0.0
 11
61.622790660765347
 21
61.180289351408568
 31
0.0
  0
LINE
  5
4F3
  8
0
 39
2.4219685759999998
 10
61.621046843390623
 20
61.284918393891772
 30
0.0
 11
61.625987659285663
 21
61.232410115164093
 31
0.0
  0
LINE
  5
4F4
  8
0
 39
2.4219685759999998
 10
61.60796821308022
 20
61.337426672619451
 30
0.0
 11
61.621046843390623
 21
61.284918393891772
 31
0.0
  0
LINE
  5
4F5
  8
0
 39
2.4219685759999998
 10
61.586606450239898
 20
61.389450557631939
 30
0.0
 11
61.60796821308022
 21
61.337426672619451
 31
0.0
  0
LINE
  5
4F6
  8
0
 39
2.4219685759999998
 10
61.55705843361271
 20
61.440650973328573
 30
0.0
 11
61.586606450239898
 21
61.389450557631939
 31
0.0
  0
LINE
  5
4F7
  8
0
 39
2.4219685759999998
 10
61.519081966341027
 20
61.49044664725114
 30
0.0
 11
61.55705843361271
 21
61.440650973328573
 31
0.0
  0
LINE
  5
4F8
  8
0
 39
2.4219685759999998
 10
61.472725487796382
 20
61.538450064427451
 30
0.0
 11
61.519081966341027
 21
61.49044664725114
 31
0.0
  0
LINE
  5
4F9
  8
0
 39
2.4219685759999998
 10
61.41794055860727
 20
61.584176831142329
 30
0.0
 11
61.472725487796382
 21
61.538450064427451
 31
0.0
  0
LINE
  5
4FA
  8
0
 39
2.4219685759999998
 10
61.41794055860727
 20
61.584176831142329
 30
0.0
 11
61.41794055860727
 21
61.584176831142329
 31
0.0
  0
LINE
  5
4FB
  8
0
 39
2.4219685759999998
 10
60.711016370644387
 20
62.233651924482487
 30
0.0
 11
61.41794055860727
 21
61.584176831142329
 31
0.0
  0
LINE
  5
4FC
  8
0
 39
2.4219685759999998
 10
62.201059877971097
 20
62.691694621575607
 30
0.0
 11
60.711016370644387
 21
62.233651924482487
 31
0.0
  0
LINE
  5
4FD
  8
0
 39
2.4219685759999998
 10
62.243153691821988
 20
62.70908435595129
 30
0.0
 11
62.201059877971097
 21
62.691694621575607
 31
0.0
  0
LINE
  5
4FE
  8
0
 39
2.4219685759999998
 10
62.283358370183592
 20
62.730058603819458
 30
0.0
 11
62.243153691821988
 21
62.70908435595129
 31
0.0
  0
LINE
  5
4FF
  8
0
 39
2.4219685759999998
 10
62.321673913055911
 20
62.754908001409213
 30
0.0
 11
62.283358370183592
 21
62.730058603819458
 31
0.0
  0
LINE
  5
500
  8
0
 39
2.4219685759999998
 10
62.357955002324388
 20
62.783535669977539
 30
0.0
 11
62.321673913055911
 21
62.754908001409213
 31
0.0
  0
LINE
  5
501
  8
0
 39
2.4219685759999998
 10
62.392298516732069
 20
62.816329124496583
 30
0.0
 11
62.357955002324388
 21
62.783535669977539
 31
0.0
  0
LINE
  5
502
  8
0
 39
2.4219685759999998
 10
62.424559138164391
 20
62.853143046851777
 30
0.0
 11
62.392298516732069
 21
62.816329124496583
 31
0.0
  0
LINE
  5
503
  8
0
 39
2.4219685759999998
 10
62.45468842724982
 20
62.894268073272258
 30
0.0
 11
62.424559138164391
 21
62.853143046851777
 31
0.0
  0
LINE
  5
504
  8
0
 39
2.4219685759999998
 10
62.482589505245343
 20
62.939655764386487
 30
0.0
 11
62.45468842724982
 21
62.894268073272258
 31
0.0
  0
LINE
  5
505
  8
0
 39
2.4219685759999998
 10
62.508359250893989
 20
62.98969363516666
 30
0.0
 11
62.482589505245343
 21
62.939655764386487
 31
0.0
  0
LINE
  5
506
  8
0
 39
2.4219685759999998
 10
62.531755467338137
 20
63.044187928126647
 30
0.0
 11
62.508359250893989
 21
62.98969363516666
 31
0.0
  0
LINE
  5
507
  8
0
 39
2.4219685759999998
 10
62.552826593949348
 20
63.103429279495607
 30
0.0
 11
62.531755467338137
 21
63.044187928126647
 31
0.0
  0
LINE
  5
508
  8
0
 39
2.4219685759999998
 10
62.571475751984551
 20
63.167417689273542
 30
0.0
 11
62.552826593949348
 21
63.103429279495607
 31
0.0
  0
LINE
  5
509
  8
0
 39
2.4219685759999998
 10
62.587702941443752
 20
63.23639535431802
 30
0.0
 11
62.571475751984551
 21
63.167417689273542
 31
0.0
  0
LINE
  5
50A
  8
0
 39
2.4219685759999998
 10
62.601362844212389
 20
63.310313835257531
 30
0.0
 11
62.587702941443752
 21
63.23639535431802
 31
0.0
  0
LINE
  5
50B
  8
0
 39
2.4219685759999998
 10
62.612503899661988
 20
63.389463768321207
 30
0.0
 11
62.601362844212389
 21
63.310313835257531
 31
0.0
  0
LINE
  5
50C
  8
0
 39
2.4219685759999998
 10
62.627876794841512
 20
63.54328107008881
 30
0.0
 11
62.612503899661988
 21
63.389463768321207
 31
0.0
  0
LINE
  5
50D
  8
0
 39
2.4219685759999998
 10
62.620932350306461
 20
63.473796714137542
 30
0.0
 11
62.620932350306461
 21
63.473796714137542
 31
0.0
  0
LINE
  5
50E
  8
0
 39
2.4219685759999998
 10
58.877876794841512
 20
67.035275083766976
 30
0.0
 11
62.620932350306461
 21
67.035275083766976
 31
0.0
  0
LINE
  5
50F
  8
0
 39
2.4219685759999998
 10
61.410819970993828
 20
57.591900709150593
 30
0.0
 11
61.494281008122783
 21
57.535275083843707
 31
0.0
  0
LINE
  5
510
  8
0
 39
2.4219685759999998
 10
61.327262055121828
 20
57.646685638339711
 30
0.0
 11
61.410819970993828
 21
57.591900709150593
 31
0.0
  0
LINE
  5
511
  8
0
 39
2.4219685759999998
 10
61.243704139249829
 20
57.699678310782588
 30
0.0
 11
61.327262055121828
 21
57.646685638339711
 31
0.0
  0
LINE
  5
512
  8
0
 39
2.4219685759999998
 10
61.160146223377822
 20
57.750830287107711
 30
0.0
 11
61.243704139249829
 21
57.699678310782588
 31
0.0
  0
LINE
  5
513
  8
0
 39
2.4219685759999998
 10
61.07658830750583
 20
57.80023844605811
 30
0.0
 11
61.160146223377822
 21
57.750830287107711
 31
0.0
  0
LINE
  5
514
  8
0
 39
2.4219685759999998
 10
60.993030391633823
 20
57.847854348262267
 30
0.0
 11
61.07658830750583
 21
57.80023844605811
 31
0.0
  0
LINE
  5
515
  8
0
 39
2.4219685759999998
 10
60.909472475761831
 20
57.893677993720189
 30
0.0
 11
60.993030391633823
 21
57.847854348262267
 31
0.0
  0
LINE
  5
516
  8
0
 39
2.4219685759999998
 10
60.825914559889817
 20
57.937660943060351
 30
0.0
 11
60.909472475761831
 21
57.893677993720189
 31
0.0
  0
LINE
  5
517
  8
0
 39
2.4219685759999998
 10
60.742453522760862
 20
57.979948514397307
 30
0.0
 11
60.825914559889817
 21
57.937660943060351
 31
0.0
  0
LINE
  5
518
  8
0
 39
2.4219685759999998
 10
60.658895606888862
 20
58.02039538961651
 30
0.0
 11
60.742453522760862
 21
57.979948514397307
 31
0.0
  0
LINE
  5
519
  8
0
 39
2.4219685759999998
 10
60.57533769101687
 20
58.059050008089471
 30
0.0
 11
60.658895606888862
 21
58.02039538961651
 31
0.0
  0
LINE
  5
51A
  8
0
 39
2.4219685759999998
 10
60.491779775144863
 20
58.095863930444672
 30
0.0
 11
60.57533769101687
 21
58.059050008089471
 31
0.0
  0
LINE
  5
51B
  8
0
 39
2.4219685759999998
 10
60.408221859272871
 20
58.130982474796667
 30
0.0
 11
60.491779775144863
 21
58.095863930444672
 31
0.0
  0
LINE
  5
51C
  8
0
 39
2.4219685759999998
 10
60.324663943400871
 20
58.164260323030909
 30
0.0
 11
60.408221859272871
 21
58.130982474796667
 31
0.0
  0
LINE
  5
51D
  8
0
 39
2.4219685759999998
 10
60.241106027528872
 20
58.195697475147398
 30
0.0
 11
60.324663943400871
 21
58.164260323030909
 31
0.0
  0
LINE
  5
51E
  8
0
 39
2.4219685759999998
 10
60.157548111656858
 20
58.225342370517637
 30
0.0
 11
60.241106027528872
 21
58.195697475147398
 31
0.0
  0
LINE
  5
51F
  8
0
 39
2.4219685759999998
 10
60.157548111656858
 20
58.225342370517637
 30
0.0
 11
60.157548111656858
 21
58.225342370517637
 31
0.0
  0
LINE
  5
520
  8
0
 39
2.4219685759999998
 10
60.094964443653033
 20
58.270100349802121
 30
0.0
 11
60.157548111656858
 21
58.225342370517637
 31
0.0
  0
LINE
  5
521
  8
0
 39
2.4219685759999998
 10
60.040712347550631
 20
58.313695784170108
 30
0.0
 11
60.094964443653033
 21
58.270100349802121
 31
0.0
  0
LINE
  5
522
  8
0
 39
2.4219685759999998
 10
59.994791823349672
 20
58.356080234250108
 30
0.0
 11
60.040712347550631
 21
58.313695784170108
 31
0.0
  0
LINE
  5
523
  8
0
 39
2.4219685759999998
 10
59.957154431678617
 20
58.397205260670589
 30
0.0
 11
59.994791823349672
 21
58.356080234250108
 31
0.0
  0
LINE
  5
524
  8
0
 39
2.4219685759999998
 10
59.927945490652057
 20
58.437167742174587
 30
0.0
 11
59.957154431678617
 21
58.397205260670589
 31
0.0
  0
LINE
  5
525
  8
0
 39
2.4219685759999998
 10
59.907019682155422
 20
58.475919239390592
 30
0.0
 11
59.927945490652057
 21
58.437167742174587
 31
0.0
  0
LINE
  5
526
  8
0
 39
2.4219685759999998
 10
59.894522324303267
 20
58.513508191690107
 30
0.0
 11
59.907019682155422
 21
58.475919239390592
 31
0.0
  0
LINE
  5
527
  8
0
 39
2.4219685759999998
 10
59.890308098981023
 20
58.549837720330117
 30
0.0
 11
59.894522324303267
 21
58.513508191690107
 31
0.0
  0
LINE
  5
528
  8
0
 39
2.4219685759999998
 10
59.894522324303267
 20
58.585053143425149
 30
0.0
 11
59.890308098981023
 21
58.549837720330117
 31
0.0
  0
LINE
  5
529
  8
0
 39
2.4219685759999998
 10
59.907019682155422
 20
58.619057582232188
 30
0.0
 11
59.894522324303267
 21
58.585053143425149
 31
0.0
  0
LINE
  5
52A
  8
0
 39
2.4219685759999998
 10
59.927945490652057
 20
58.65189947612275
 30
0.0
 11
59.907019682155422
 21
58.619057582232188
 31
0.0
  0
LINE
  5
52B
  8
0
 39
2.4219685759999998
 10
59.957154431678617
 20
58.683481946353787
 30
0.0
 11
59.927945490652057
 21
58.65189947612275
 31
0.0
  0
LINE
  5
52C
  8
0
 39
2.4219685759999998
 10
59.994791823349672
 20
58.713901871668348
 30
0.0
 11
59.957154431678617
 21
58.683481946353787
 31
0.0
  0
LINE
  5
52D
  8
0
 39
2.4219685759999998
 10
60.040712347550631
 20
58.743110812694923
 30
0.0
 11
59.994791823349672
 21
58.713901871668348
 31
0.0
  0
LINE
  5
52E
  8
0
 39
2.4219685759999998
 10
60.094964443653033
 20
58.771157208805
 30
0.0
 11
60.040712347550631
 21
58.743110812694923
 31
0.0
  0
LINE
  5
52F
  8
0
 39
2.4219685759999998
 10
60.157548111656858
 20
58.797895741884041
 30
0.0
 11
60.094964443653033
 21
58.771157208805
 31
0.0
  0
LINE
  5
530
  8
0
 39
2.4219685759999998
 10
60.157548111656858
 20
58.797895741884041
 30
0.0
 11
60.157548111656858
 21
58.797895741884041
 31
0.0
  0
LINE
  5
531
  8
0
 39
2.4219685759999998
 10
61.249759060689819
 20
59.313193776113792
 30
0.0
 11
60.157548111656858
 21
58.797895741884041
 31
0.0
  0
LINE
  5
532
  8
0
 39
2.4219685759999998
 10
60.157548111656858
 20
60.133902047833537
 30
0.0
 11
61.249759060689819
 21
59.313193776113792
 31
0.0
  0
LINE
  5
533
  8
0
 39
2.4219685759999998
 10
60.106638332189341
 20
60.18185702563833
 30
0.0
 11
60.157548111656858
 21
60.133902047833537
 31
0.0
  0
LINE
  5
534
  8
0
 39
2.4219685759999998
 10
60.062606943477661
 20
60.227777549839303
 30
0.0
 11
60.106638332189341
 21
60.18185702563833
 31
0.0
  0
LINE
  5
535
  8
0
 39
2.4219685759999998
 10
60.025550824264862
 20
60.271857377922487
 30
0.0
 11
60.062606943477661
 21
60.227777549839303
 31
0.0
  0
LINE
  5
536
  8
0
 39
2.4219685759999998
 10
59.995421535179432
 20
60.314096509887939
 30
0.0
 11
60.025550824264862
 21
60.271857377922487
 31
0.0
  0
LINE
  5
537
  8
0
 39
2.4219685759999998
 10
59.97221907622135
 20
60.354785581964727
 30
0.0
 11
59.995421535179432
 21
60.314096509887939
 31
0.0
  0
LINE
  5
538
  8
0
 39
2.4219685759999998
 10
59.95574968990455
 20
60.393876154781367
 30
0.0
 11
59.97221907622135
 21
60.354785581964727
 31
0.0
  0
LINE
  5
539
  8
0
 39
2.4219685759999998
 10
59.94615869434358
 20
60.431610425195458
 30
0.0
 11
59.95574968990455
 21
60.393876154781367
 31
0.0
  0
LINE
  5
53A
  8
0
 39
2.4219685759999998
 10
59.943203892680863
 20
60.467939953835447
 30
0.0
 11
59.94615869434358
 21
60.431610425195458
 31
0.0
  0
LINE
  5
53B
  8
0
 39
2.4219685759999998
 10
59.947079042402471
 20
60.503203816302019
 30
0.0
 11
59.943203892680863
 21
60.467939953835447
 31
0.0
  0
LINE
  5
53C
  8
0
 39
2.4219685759999998
 10
59.957541946650778
 20
60.537305133852087
 30
0.0
 11
59.947079042402471
 21
60.503203816302019
 31
0.0
  0
LINE
  5
53D
  8
0
 39
2.4219685759999998
 10
59.974641044797352
 20
60.570437663971767
 30
0.0
 11
59.957541946650778
 21
60.537305133852087
 31
0.0
  0
LINE
  5
53E
  8
0
 39
2.4219685759999998
 10
59.99823101872758
 20
60.602698285404088
 30
0.0
 11
59.974641044797352
 21
60.570437663971767
 31
0.0
  0
LINE
  5
53F
  8
0
 39
2.4219685759999998
 10
60.028408747184542
 20
60.634280755635132
 30
0.0
 11
59.99823101872758
 21
60.602698285404088
 31
0.0
  0
LINE
  5
540
  8
0
 39
2.4219685759999998
 10
60.065028912053663
 20
60.66518507466489
 30
0.0
 11
60.028408747184542
 21
60.634280755635132
 31
0.0
  0
LINE
  5
541
  8
0
 39
2.4219685759999998
 10
60.108139952706459
 20
60.695604999979459
 30
0.0
 11
60.065028912053663
 21
60.66518507466489
 31
0.0
  0
LINE
  5
542
  8
0
 39
2.4219685759999998
 10
60.157548111656858
 20
60.725540531578808
 30
0.0
 11
60.108139952706459
 21
60.695604999979459
 31
0.0
  0
LINE
  5
543
  8
0
 39
2.4219685759999998
 10
60.157548111656858
 20
60.725540531578808
 30
0.0
 11
60.157548111656858
 21
60.725540531578808
 31
0.0
  0
LINE
  5
544
  8
0
 39
2.4219685759999998
 10
61.307014397826457
 20
61.202668341050803
 30
0.0
 11
60.157548111656858
 21
60.725540531578808
 31
0.0
  0
LINE
  5
545
  8
0
 39
2.4219685759999998
 10
58.877876794841512
 20
62.462285758056893
 30
0.0
 11
59.877876794841491
 21
62.4622857580569
 31
0.0
  0
LINE
  5
546
  8
0
 39
2.4219685759999998
 10
61.627876794774949
 20
63.035275083766969
 30
0.0
 11
61.627876794774949
 21
63.035275083766969
 31
0.0
  0
LINE
  5
547
  8
0
 39
2.4219685759999998
 10
58.877876794841512
 20
65.035275083766976
 30
0.0
 11
61.627876794774949
 21
65.035275083766976
 31
0.0
  0
LINE
  5
548
  8
0
 39
2.4219685759999998
 10
61.627876794774949
 20
63.035275083766969
 30
0.0
 11
59.877876794841491
 21
63.035275083766983
 31
0.0
  0
LINE
  5
549
  8
0
 39
2.4219685759999998
 10
60.405654572582307
 20
65.035323523138501
 30
0.0
 11
60.405654572582307
 21
65.035323523138501
 31
0.0
  0
LINE
  5
54A
  8
0
 10
59.877876794841498
 20
62.462285758056893
 30
0.0
 11
61.307014397826457
 21
61.202668341050803
 31
0.0
  0
LINE
  5
54B
  8
0
 10
58.877876794841512
 20
59.313193776113792
 30
0.0
 11
61.249759060689819
 21
59.313193776113792
 31
0.0
  0
LINE
  5
54C
  8
0
 10
58.877876794841512
 20
61.202668341050803
 30
0.0
 11
61.307014397826457
 21
61.202668341050803
 31
0.0
  0
LINE
  5
54D
  8
0
 10
58.877876794841512
 20
58.513508191690107
 30
0.0
 11
59.894522324303267
 21
58.513508191690107
 31
0.0
  0
LINE
  5
54E
  8
0
 10
58.877876794841512
 20
60.467939953835447
 30
0.0
 11
59.943203892680863
 21
60.467939953835447
 31
0.0
  0
LINE
  5
54F
  8
0
 10
61.877876794841498
 20
63.035275083766969
 30
0.0
 11
59.894716081789333
 21
63.035275083766969
 31
0.0
  0
LINE
  5
550
  8
0
 10
61.877876794841498
 20
65.035275083766976
 30
0.0
 11
58.877876794841512
 21
65.035275083766976
 31
0.0
  0
LINE
  5
551
  8
0
 10
62.627876794841512
 20
63.54328107008881
 30
0.0
 11
62.627876794841512
 21
67.035275083766976
 31
0.0
  0
LINE
  5
552
  8
0
 10
61.877876794841498
 20
65.035275083766976
 30
0.0
 11
61.877876794841498
 21
63.035275083766969
 31
0.0
  0
LINE
  5
553
  8
0
 10
60.877876794841512
 20
67.035275083766976
 30
0.0
 11
60.877876794841512
 21
65.035275083766976
 31
0.0
  0
LINE
  5
554
  8
0
 10
59.877876794841498
 20
63.035275083766969
 30
0.0
 11
58.877876794841512
 21
63.035275083766969
 31
0.0
  0
LINE
  5
555
  8
0
 10
59.877876794841498
 20
63.035275083766969
 30
0.0
 11
59.877876794841498
 21
62.462285758056893
 31
0.0
  0
DIMENSION
  5
55A
  8
2
  2
*D1
 10
60.877876794841512
 20
70.614899839799733
 30
0.0
 11
58.877876794841512
 21
71.552399839799733
 31
0.0
 70
     0
  1
%%c<>
 13
56.877876794841498
 23
67.035275083766976
 33
0.0
 14
60.877876794841512
 24
67.035275083766976
 34
0.0
  0
DIMENSION
  5
567
  8
2
  2
*D2
 10
59.877876794841491
 20
53.598807664733911
 30
0.0
 11
63.732043461508162
 21
54.536307664733911
 31
0.0
 70
     0
  1
%%c<>
 13
57.877876794841498
 23
62.462285758056893
 33
0.0
 14
59.877876794841491
 24
62.4622857580569
 34
0.0
  0
DIMENSION
  5
576
  8
2
  2
*D3
 10
61.627876794774949
 20
50.885034322868812
 30
0.0
 11
58.877876794841512
 21
51.822534322868812
 31
0.0
 70
     0
  1
%%c<>
 13
56.127876794908062
 23
57.535275083843707
 33
0.0
 14
61.627876794774949
 24
57.535275083843707
 34
0.0
1001
ACAD
1000
DSTYLE
1002
{
1070
   271
1070
     6
1002
}
  0
DIMENSION
  5
58C
  8
2
  2
*D4
 10
61.877876794841498
 20
72.81525666473182
 30
0.0
 11
58.877876794841512
 21
73.75275666473182
 31
0.0
 70
     0
  1
%%c<>
 13
55.877876794841512
 23
65.035275083766976
 33
0.0
 14
61.877876794841498
 24
65.035275083766976
 34
0.0
  0
DIMENSION
  5
599
  8
2
  2
*D5
 10
62.627876794841512
 20
75.015613338561693
 30
0.0
 11
58.877876794841512
 21
75.953113338561693
 31
0.0
 70
     0
  1
%%c<>
 13
55.127876794841512
 23
67.035275083766976
 33
0.0
 14
62.627876794841512
 24
67.035275083766976
 34
0.0
1001
ACAD
1000
DSTYLE
1002
{
1070
   271
1070
     6
1002
}
  0
DIMENSION
  5
5AF
  8
2
  2
*D6
 10
68.622951570376642
 20
65.035275083766976
 30
0.0
 11
67.685451570376628
 21
66.03527508376699
 31
0.0
 70
     0
 13
62.627876794841512
 23
67.035275083766976
 33
0.0
 14
61.877876794841498
 24
65.035275083766976
 34
0.0
 50
90.0
  0
DIMENSION
  5
5BE
  8
2
  2
*D7
 10
71.046635935490258
 20
63.035275083766969
 30
0.0
 11
70.109135935490244
 21
65.03527508376699
 31
0.0
 70
     0
 13
62.620932350306461
 23
67.035275083766976
 33
0.0
 14
61.877876794841498
 24
63.035275083766969
 34
0.0
 50
90.0
  0
DIMENSION
  5
5CC
  8
2
  2
*D8
 10
73.543765378849116
 20
57.535275083843707
 30
0.0
 11
72.606265378849102
 21
62.285275083805352
 31
0.0
 70
     0
 13
62.620932350306461
 23
67.035275083766976
 33
0.0
 14
61.627876794774949
 24
57.535275083843707
 34
0.0
 50
90.0
1001
ACAD
1000
DSTYLE
1002
{
1070
   271
1070
     6
1002
}
  0
ENDSEC
  0
EOF
