  0
SECTION
  2
HEADER
  9
$ACADVER
  1
AC1009
  9
$INSBASE
 10
0.0
 20
0.0
 30
0.0
  9
$EXTMIN
 10
70.655805553017771
 20
28.853800811239221
 30
0.0
  9
$EXTMAX
 10
156.79799171779189
 20
117.62386415256989
 30
6.2173588649999987
  9
$LIMMIN
 10
0.0
 20
0.0
  9
$LIMMAX
 10
420.0
 20
297.0
  9
$ORTHOMODE
 70
     0
  9
$REGENMODE
 70
     1
  9
$FILLMODE
 70
     1
  9
$QTEXTMODE
 70
     0
  9
$MIRRTEXT
 70
     1
  9
$DRAGMODE
 70
     2
  9
$LTSCALE
 40
0.3
  9
$OSMODE
 70
    37
  9
$ATTMODE
 70
     1
  9
$TEXTSIZE
 40
2.5
  9
$TRACEWID
 40
1.0
  9
$TEXTSTYLE
  7
STANDARD
  9
$CLAYER
  8
2
  9
$CELTYPE
  6
BYLAYER
  9
$CECOLOR
 62
   256
  9
$DIMSCALE
 40
1.0
  9
$DIMASZ
 40
2.5
  9
$DIMEXO
 40
0.625
  9
$DIMDLI
 40
3.75
  9
$DIMRND
 40
0.0
  9
$DIMDLE
 40
0.0
  9
$DIMEXE
 40
1.25
  9
$DIMTP
 40
0.0
  9
$DIMTM
 40
0.0
  9
$DIMTXT
 40
2.5
  9
$DIMCEN
 40
2.5
  9
$DIMTSZ
 40
0.0
  9
$DIMTOL
 70
     0
  9
$DIMLIM
 70
     0
  9
$DIMTIH
 70
     0
  9
$DIMTOH
 70
     0
  9
$DIMSE1
 70
     0
  9
$DIMSE2
 70
     0
  9
$DIMTAD
 70
     1
  9
$DIMZIN
 70
     8
  9
$DIMBLK
  1

  9
$DIMASO
 70
     1
  9
$DIMSHO
 70
     1
  9
$DIMPOST
  1

  9
$DIMAPOST
  1

  9
$DIMALT
 70
     0
  9
$DIMALTD
 70
     3
  9
$DIMALTF
 40
0.03937007874016
  9
$DIMLFAC
 40
1.0
  9
$DIMTOFL
 70
     1
  9
$DIMTVP
 40
0.0
  9
$DIMTIX
 70
     0
  9
$DIMSOXD
 70
     0
  9
$DIMSAH
 70
     0
  9
$DIMBLK1
  1

  9
$DIMBLK2
  1

  9
$DIMSTYLE
  2
ISO-25
  9
$DIMCLRD
 70
     0
  9
$DIMCLRE
 70
     0
  9
$DIMCLRT
 70
     0
  9
$DIMTFAC
 40
1.0
  9
$DIMGAP
 40
0.625
  9
$LUNITS
 70
     2
  9
$LUPREC
 70
     4
  9
$SKETCHINC
 40
1.0
  9
$FILLETRAD
 40
10.0
  9
$AUNITS
 70
     0
  9
$AUPREC
 70
     0
  9
$MENU
  1
.
  9
$ELEVATION
 40
0.0
  9
$PELEVATION
 40
0.0
  9
$THICKNESS
 40
0.0
  9
$LIMCHECK
 70
     0
  9
$BLIPMODE
 70
     0
  9
$CHAMFERA
 40
10.0
  9
$CHAMFERB
 40
10.0
  9
$SKPOLY
 70
     0
  9
$TDCREATE
 40
2453441.3951267819
  9
$TDUPDATE
 40
2453551.9128389698
  9
$TDINDWG
 40
0.0426604398
  9
$TDUSRTIMER
 40
0.0426603241
  9
$USRTIMER
 70
     1
  9
$ANGBASE
 50
0.0
  9
$ANGDIR
 70
     0
  9
$PDMODE
 70
     0
  9
$PDSIZE
 40
0.0
  9
$PLINEWID
 40
0.0
  9
$COORDS
 70
     1
  9
$SPLFRAME
 70
     0
  9
$SPLINETYPE
 70
     6
  9
$SPLINESEGS
 70
     8
  9
$ATTDIA
 70
     0
  9
$ATTREQ
 70
     1
  9
$HANDLING
 70
-16383
  9
$HANDSEED
  5
73A
  9
$SURFTAB1
 70
     6
  9
$SURFTAB2
 70
     6
  9
$SURFTYPE
 70
     6
  9
$SURFU
 70
     6
  9
$SURFV
 70
     6
  9
$UCSNAME
  2

  9
$UCSORG
 10
0.0
 20
0.0
 30
0.0
  9
$UCSXDIR
 10
1.0
 20
0.0
 30
0.0
  9
$UCSYDIR
 10
0.0
 20
1.0
 30
0.0
  9
$PUCSNAME
  2

  9
$PUCSORG
 10
0.0
 20
0.0
 30
0.0
  9
$PUCSXDIR
 10
1.0
 20
0.0
 30
0.0
  9
$PUCSYDIR
 10
0.0
 20
1.0
 30
0.0
  9
$USERI1
 70
     0
  9
$USERI2
 70
     0
  9
$USERI3
 70
     0
  9
$USERI4
 70
     0
  9
$USERI5
 70
     0
  9
$USERR1
 40
0.0
  9
$USERR2
 40
0.0
  9
$USERR3
 40
0.0
  9
$USERR4
 40
0.0
  9
$USERR5
 40
0.0
  9
$WORLDVIEW
 70
     1
  9
$SHADEDGE
 70
     3
  9
$SHADEDIF
 70
    70
  9
$TILEMODE
 70
     1
  9
$MAXACTVP
 70
    64
  9
$PLIMCHECK
 70
     0
  9
$PEXTMIN
 10
1.0000000000000000E+020
 20
1.0000000000000000E+020
 30
1.0000000000000000E+020
  9
$PEXTMAX
 10
-1.0000000000000000E+020
 20
-1.0000000000000000E+020
 30
-1.0000000000000000E+020
  9
$PLIMMIN
 10
0.0
 20
0.0
  9
$PLIMMAX
 10
420.0
 20
297.0
  9
$UNITMODE
 70
     0
  9
$VISRETAIN
 70
     1
  9
$PLINEGEN
 70
     0
  9
$PSLTSCALE
 70
     1
  0
ENDSEC
  0
SECTION
  2
TABLES
  0
TABLE
  2
VPORT
 70
     2
  0
VPORT
  2
*ACTIVE
 70
     0
 10
0.0
 20
0.0
 11
1.0
 21
1.0
 12
141.2997943874532
 22
78.332635394997354
 13
0.0
 23
0.0
 14
10.0
 24
10.0
 15
10.0
 25
10.0
 16
0.0
 26
0.0
 36
1.0
 17
0.0
 27
0.0
 37
0.0
 40
122.8120858488362
 41
2.5392405063291141
 42
50.0
 43
0.0
 44
0.0
 50
0.0
 51
0.0
 71
     0
 72
   100
 73
     1
 74
     3
 75
     0
 76
     0
 77
     0
 78
     0
  0
ENDTAB
  0
TABLE
  2
LTYPE
 70
     2
  0
LTYPE
  2
CONTINUOUS
 70
     0
  3
Solid line
 72
    65
 73
     0
 40
0.0
  0
LTYPE
  2
CENTER
 70
     0
  3
Center ____ _ ____ _ ____ _ ____ _ ____ _ ____
 72
    65
 73
     4
 40
50.799999999999997
 49
31.75
 49
-6.3499999999999988
 49
6.3499999999999988
 49
-6.3499999999999988
  0
ENDTAB
  0
TABLE
  2
LAYER
 70
     4
  0
LAYER
  2
0
 70
     0
 62
     7
  6
CONTINUOUS
  0
LAYER
  2
1
 70
     0
 62
     7
  6
CENTER
  0
LAYER
  2
2
 70
     0
 62
     7
  6
CONTINUOUS
  0
LAYER
  2
DEFPOINTS
 70
     0
 62
     7
  6
CONTINUOUS
  0
ENDTAB
  0
TABLE
  2
STYLE
 70
     3
  0
STYLE
  2
STANDARD
 70
     0
 40
0.0
 41
1.0
 50
0.0
 71
     0
 42
2.5
  3
txt
  4

  0
STYLE
  2
\U+00C9L\U+00C9R_\U+00C2S\U+00C2V\U+00C2B\U+00C2N
 70
     0
 40
1.0
 41
1.0
 50
0.0
 71
     0
 42
1.0
  3
\U+00E9l\U+00E9r \U+00E2S\U+00E2V\U+00E2b\U+00E2N
  4

  0
STYLE
  2

 70
     1
 40
0.0
 41
1.0
 50
0.0
 71
     0
 42
2.5
  3
ltypeshp.shx
  4

  0
ENDTAB
  0
TABLE
  2
VIEW
 70
     0
  0
ENDTAB
  0
TABLE
  2
UCS
 70
     0
  0
ENDTAB
  0
TABLE
  2
APPID
 70
     1
  0
APPID
  2
ACAD
 70
     0
  0
ENDTAB
  0
TABLE
  2
DIMSTYLE
 70
     2
  0
DIMSTYLE
  2
ISO-25
 70
     0
  3

  4

  5

  6

  7

 40
1.0
 41
2.5
 42
0.625
 43
3.75
 44
1.25
 45
0.0
 46
0.0
 47
0.0
 48
0.0
140
2.5
141
2.5
142
0.0
143
0.03937007874016
144
1.0
145
0.0
146
1.0
147
0.625
 71
     0
 72
     0
 73
     0
 74
     0
 75
     0
 76
     0
 77
     1
 78
     8
170
     0
171
     3
172
     1
173
     0
174
     0
175
     0
176
     0
177
     0
178
     0
  0
DIMSTYLE
  2
STANDARD
 70
     0
  3

  4

  5

  6

  7

 40
1.0
 41
0.18
 42
0.0625
 43
0.38
 44
0.18
 45
0.0
 46
0.0
 47
0.0
 48
0.0
140
0.18
141
0.09
142
0.0
143
25.399999999999999
144
1.0
145
0.0
146
1.0
147
0.09
 71
     0
 72
     0
 73
     1
 74
     1
 75
     0
 76
     0
 77
     0
 78
     0
170
     0
171
     2
172
     0
173
     0
174
     0
175
     0
176
     0
177
     0
178
     0
  0
ENDTAB
  0
ENDSEC
  0
SECTION
  2
BLOCKS
  0
BLOCK
  8
0
  2
$MODEL_SPACE
 70
     0
 10
0.0
 20
0.0
 30
0.0
  3
$MODEL_SPACE
  1

  0
ENDBLK
  5
21
  8
0
  0
BLOCK
 67
     1
  8
0
  2
$PAPER_SPACE
 70
     0
 10
0.0
 20
0.0
 30
0.0
  3
$PAPER_SPACE
  1

  0
ENDBLK
  5
1D
 67
     1
  8
0
  0
BLOCK
  8
0
  2
*D1
 70
     1
 10
0.0
 20
0.0
 30
0.0
  3
*D1
  1

  0
LINE
  5
68A
  8
2
 62
     0
 10
110.2568612395043
 20
91.546533310324747
 30
0.0
 11
110.2568612395043
 21
100.25957976417151
 31
0.0
  0
LINE
  5
68B
  8
2
 62
     0
 10
118.2568612395042
 20
91.546533310324747
 30
0.0
 11
118.2568612395042
 21
100.25957976417151
 31
0.0
  0
LINE
  5
68C
  8
2
 62
     0
 10
112.7568612395043
 20
99.009579764171576
 30
0.0
 11
115.7568612395043
 21
99.009579764171576
 31
0.0
  0
SOLID
  5
68D
  8
2
 62
     0
 10
112.7568612395043
 20
99.426246430838233
 30
0.0
 11
112.7568612395043
 21
98.592913097504905
 31
0.0
 12
110.2568612395043
 22
99.009579764171576
 32
0.0
 13
110.2568612395043
 23
99.009579764171576
 33
0.0
  0
SOLID
  5
68E
  8
2
 62
     0
 10
115.7568612395043
 20
99.426246430838233
 30
0.0
 11
115.7568612395043
 21
98.592913097504905
 31
0.0
 12
118.2568612395042
 22
99.009579764171576
 32
0.0
 13
118.2568612395042
 23
99.009579764171576
 33
0.0
  0
INSERT
  5
68F
  8
2
  2
*U13
 10
0.0
 20
0.0
 30
0.0
  0
POINT
  5
690
  8
DEFPOINTS
 62
     0
 10
110.2568612395043
 20
90.921533310324747
 30
0.0
  0
POINT
  5
691
  8
DEFPOINTS
 62
     0
 10
118.2568612395042
 20
90.921533310324747
 30
0.0
  0
POINT
  5
692
  8
DEFPOINTS
 62
     0
 10
118.2568612395042
 20
99.009579764171576
 30
0.0
  0
ENDBLK
  5
585
  8
0
  0
BLOCK
  8
0
  2
*D2
 70
     1
 10
0.0
 20
0.0
 30
0.0
  3
*D2
  1

  0
LINE
  5
681
  8
2
 62
     0
 10
104.2568612395043
 20
84.546533310324733
 30
0.0
 11
104.2568612395043
 21
105.2108180422405
 31
0.0
  0
LINE
  5
682
  8
2
 62
     0
 10
124.2568612395043
 20
84.546533310324733
 30
0.0
 11
124.2568612395043
 21
105.2108180422405
 31
0.0
  0
LINE
  5
683
  8
2
 62
     0
 10
106.7568612395042
 20
103.9608180422405
 30
0.0
 11
121.7568612395043
 21
103.9608180422405
 31
0.0
  0
SOLID
  5
684
  8
2
 62
     0
 10
106.7568612395042
 20
104.3774847089071
 30
0.0
 11
106.7568612395042
 21
103.5441513755738
 31
0.0
 12
104.2568612395043
 22
103.9608180422405
 32
0.0
 13
104.2568612395043
 23
103.9608180422405
 33
0.0
  0
SOLID
  5
685
  8
2
 62
     0
 10
121.7568612395043
 20
104.3774847089071
 30
0.0
 11
121.7568612395043
 21
103.5441513755738
 31
0.0
 12
124.2568612395043
 22
103.9608180422405
 32
0.0
 13
124.2568612395043
 23
103.9608180422405
 33
0.0
  0
INSERT
  5
686
  8
2
  2
*U12
 10
0.0
 20
0.0
 30
0.0
  0
POINT
  5
687
  8
DEFPOINTS
 62
     0
 10
104.2568612395043
 20
83.921533310324733
 30
0.0
  0
POINT
  5
688
  8
DEFPOINTS
 62
     0
 10
124.2568612395043
 20
83.921533310324733
 30
0.0
  0
POINT
  5
689
  8
DEFPOINTS
 62
     0
 10
124.2568612395043
 20
103.9608180422405
 30
0.0
  0
ENDBLK
  5
592
  8
0
  0
BLOCK
  8
0
  2
*D3
 70
     1
 10
0.0
 20
0.0
 30
0.0
  3
*D3
  1

  0
LINE
  5
66F
  8
2
 62
     0
 10
100.0068612395043
 20
90.399248185873049
 30
0.0
 11
100.0068612395043
 21
110.3236714851203
 31
0.0
  0
LINE
  5
670
  8
2
 62
     0
 10
128.50686123950419
 20
90.399248185873049
 30
0.0
 11
128.50686123950419
 21
110.3236714851203
 31
0.0
  0
LINE
  5
671
  8
2
 62
     0
 10
102.5068612395042
 20
109.0736714851203
 30
0.0
 11
126.0068612395043
 21
109.0736714851203
 31
0.0
  0
SOLID
  5
672
  8
2
 62
     0
 10
102.5068612395042
 20
109.490338151787
 30
0.0
 11
102.5068612395042
 21
108.6570048184537
 31
0.0
 12
100.0068612395043
 22
109.0736714851203
 32
0.0
 13
100.0068612395043
 23
109.0736714851203
 33
0.0
  0
SOLID
  5
673
  8
2
 62
     0
 10
126.0068612395043
 20
109.490338151787
 30
0.0
 11
126.0068612395043
 21
108.6570048184537
 31
0.0
 12
128.50686123950419
 22
109.0736714851203
 32
0.0
 13
128.50686123950419
 23
109.0736714851203
 33
0.0
  0
INSERT
  5
674
  8
2
  2
*U11
 10
0.0
 20
0.0
 30
0.0
  0
POINT
  5
675
  8
DEFPOINTS
 62
     0
 10
100.0068612395043
 20
89.774248185873049
 30
0.0
  0
POINT
  5
676
  8
DEFPOINTS
 62
     0
 10
128.50686123950419
 20
89.774248185873049
 30
0.0
  0
POINT
  5
677
  8
DEFPOINTS
 62
     0
 10
128.50686123950419
 20
109.0736714851203
 30
0.0
  0
ENDBLK
  5
59F
  8
0
  0
BLOCK
  8
0
  2
*D4
 70
     1
 10
0.0
 20
0.0
 30
0.0
  3
*D4
  1

  0
LINE
  5
5BC
  8
2
 62
     0
 10
127.91928973787741
 20
90.921533310324747
 30
0.0
 11
150.10530408686671
 21
90.921533310324747
 31
0.0
  0
LINE
  5
5BD
  8
2
 62
     0
 10
124.8818612395043
 20
83.921533310324733
 30
0.0
 11
150.10530408686671
 21
83.921533310324733
 31
0.0
  0
LINE
  5
5BE
  8
2
 62
     0
 10
148.85530408686671
 20
93.421533310324747
 30
0.0
 11
148.85530408686671
 21
95.921533310324747
 31
0.0
  0
LINE
  5
5BF
  8
2
 62
     0
 10
148.85530408686671
 20
81.421533310324733
 30
0.0
 11
148.85530408686671
 21
78.921533310324733
 31
0.0
  0
LINE
  5
5C0
  8
2
 62
     0
 10
148.85530408686671
 20
90.921533310324747
 30
0.0
 11
148.85530408686671
 21
83.921533310324733
 31
0.0
  0
SOLID
  5
5C1
  8
2
 62
     0
 10
148.4386374202
 20
93.421533310324747
 30
0.0
 11
149.27197075353331
 21
93.421533310324747
 31
0.0
 12
148.85530408686671
 22
90.921533310324747
 32
0.0
 13
148.85530408686671
 23
90.921533310324747
 33
0.0
  0
SOLID
  5
5C2
  8
2
 62
     0
 10
148.4386374202
 20
81.421533310324733
 30
0.0
 11
149.27197075353331
 21
81.421533310324733
 31
0.0
 12
148.85530408686671
 22
83.921533310324733
 32
0.0
 13
148.85530408686671
 23
83.921533310324733
 33
0.0
  0
TEXT
  5
5C3
  8
2
 62
     0
 10
148.2303040868666
 20
86.931141260027886
 30
0.0
 40
2.5
  1
7
 50
90.0
  0
POINT
  5
5C4
  8
DEFPOINTS
 62
     0
 10
127.29428973787741
 20
90.921533310324747
 30
0.0
  0
POINT
  5
5C5
  8
DEFPOINTS
 62
     0
 10
124.2568612395043
 20
83.921533310324733
 30
0.0
  0
POINT
  5
5C6
  8
DEFPOINTS
 62
     0
 10
148.85530408686671
 20
83.921533310324733
 30
0.0
  0
ENDBLK
  5
5AC
  8
0
  0
BLOCK
  8
0
  2
*D5
 70
     1
 10
0.0
 20
0.0
 30
0.0
  3
*D5
  1

  0
LINE
  5
5DC
  8
2
 62
     0
 10
127.91928973787741
 20
90.921533310324747
 30
0.0
 11
156.79799171779189
 21
90.921533310324747
 31
0.0
  0
LINE
  5
5DD
  8
2
 62
     0
 10
139.3306301986984
 20
54.421533310324747
 30
0.0
 11
156.7979917177918
 21
54.42153331032474
 31
0.0
  0
LINE
  5
5DE
  8
2
 62
     0
 10
155.54799171779189
 20
88.421533310324747
 30
0.0
 11
155.54799171779189
 21
56.92153331032474
 31
0.0
  0
SOLID
  5
5DF
  8
2
 62
     0
 10
155.1313250511252
 20
88.421533310324747
 30
0.0
 11
155.96465838445849
 21
88.421533310324747
 31
0.0
 12
155.54799171779189
 22
90.921533310324747
 32
0.0
 13
155.54799171779189
 23
90.921533310324747
 33
0.0
  0
SOLID
  5
5E0
  8
2
 62
     0
 10
155.1313250511252
 20
56.92153331032474
 30
0.0
 11
155.96465838445849
 21
56.92153331032474
 31
0.0
 12
155.54799171779189
 22
54.42153331032474
 32
0.0
 13
155.54799171779189
 23
54.42153331032474
 33
0.0
  0
TEXT
  5
5E1
  8
2
 62
     0
 10
154.9229917177918
 20
69.484915323042344
 30
0.0
 40
2.5
  1
36.5
 50
90.0
  0
POINT
  5
5E2
  8
DEFPOINTS
 62
     0
 10
127.29428973787741
 20
90.921533310324747
 30
0.0
  0
POINT
  5
5E3
  8
DEFPOINTS
 62
     0
 10
138.70563019869829
 20
54.421533310324747
 30
0.0
  0
POINT
  5
5E4
  8
DEFPOINTS
 62
     0
 10
155.54799171779189
 20
54.42153331032474
 30
0.0
  0
ENDBLK
  5
5BA
  8
0
  0
BLOCK
  8
0
  2
*D6
 70
     1
 10
0.0
 20
0.0
 30
0.0
  3
*D6
  1

  0
LINE
  5
666
  8
2
 62
     0
 10
84.506861239504303
 20
68.993254070121765
 30
0.0
 11
84.506861239504303
 21
115.74886415256989
 31
0.0
  0
LINE
  5
667
  8
2
 62
     0
 10
144.0068612395043
 20
68.993254070121765
 30
0.0
 11
144.0068612395043
 21
115.74886415256989
 31
0.0
  0
LINE
  5
668
  8
2
 62
     0
 10
87.006861239504303
 20
114.49886415256989
 30
0.0
 11
141.5068612395043
 21
114.49886415256989
 31
0.0
  0
SOLID
  5
669
  8
2
 62
     0
 10
87.006861239504303
 20
114.91553081923659
 30
0.0
 11
87.006861239504303
 21
114.08219748590329
 31
0.0
 12
84.506861239504303
 22
114.49886415256989
 32
0.0
 13
84.506861239504303
 23
114.49886415256989
 33
0.0
  0
SOLID
  5
66A
  8
2
 62
     0
 10
141.5068612395043
 20
114.91553081923659
 30
0.0
 11
141.5068612395043
 21
114.08219748590329
 31
0.0
 12
144.0068612395043
 22
114.49886415256989
 32
0.0
 13
144.0068612395043
 23
114.49886415256989
 33
0.0
  0
INSERT
  5
66B
  8
2
  2
*U10
 10
0.0
 20
0.0
 30
0.0
  0
POINT
  5
66C
  8
DEFPOINTS
 62
     0
 10
84.506861239504303
 20
68.368254070121765
 30
0.0
  0
POINT
  5
66D
  8
DEFPOINTS
 62
     0
 10
144.0068612395043
 20
68.368254070121765
 30
0.0
  0
POINT
  5
66E
  8
DEFPOINTS
 62
     0
 10
144.0068612395043
 20
114.49886415256989
 30
0.0
  0
ENDBLK
  5
5F2
  8
0
  0
BLOCK
  8
0
  2
*D7
 70
     1
 10
0.0
 20
0.0
 30
0.0
  3
*D7
  1

  0
LINE
  5
5F5
  8
2
 62
     0
 10
89.984265687866255
 20
54.421533310324747
 30
0.0
 11
72.530805553017785
 21
54.421533310324747
 31
0.0
  0
LINE
  5
5F6
  8
2
 62
     0
 10
97.391995536946993
 20
74.421533310324733
 30
0.0
 11
72.530805553017785
 21
74.421533310324747
 31
0.0
  0
LINE
  5
5F7
  8
2
 62
     0
 10
73.780805553017785
 20
56.921533310324747
 30
0.0
 11
73.780805553017785
 21
71.921533310324747
 31
0.0
  0
SOLID
  5
5F8
  8
2
 62
     0
 10
73.364138886351114
 20
56.921533310324747
 30
0.0
 11
74.197472219684457
 21
56.921533310324747
 31
0.0
 12
73.780805553017785
 22
54.421533310324747
 32
0.0
 13
73.780805553017785
 23
54.421533310324747
 33
0.0
  0
SOLID
  5
5F9
  8
2
 62
     0
 10
73.364138886351114
 20
71.921533310324747
 30
0.0
 11
74.197472219684457
 21
71.921533310324747
 31
0.0
 12
73.780805553017785
 22
74.421533310324747
 32
0.0
 13
73.780805553017785
 23
74.421533310324747
 33
0.0
  0
TEXT
  5
5FA
  8
2
 62
     0
 10
73.155805553017771
 20
62.546533310324762
 30
0.0
 40
2.5
  1
20
 50
90.0
  0
POINT
  5
5FB
  8
DEFPOINTS
 62
     0
 10
90.609265687866255
 20
54.421533310324747
 30
0.0
  0
POINT
  5
5FC
  8
DEFPOINTS
 62
     0
 10
98.016995536946993
 20
74.421533310324733
 30
0.0
  0
POINT
  5
5FD
  8
DEFPOINTS
 62
     0
 10
73.780805553017785
 20
74.421533310324747
 30
0.0
  0
ENDBLK
  5
5FF
  8
0
  0
BLOCK
  8
0
  2
*D8
 70
     1
 10
0.0
 20
0.0
 30
0.0
  3
*D8
  1

  0
LINE
  5
693
  8
2
 62
     0
 10
98.0568612395043
 20
59.959977827206941
 30
0.0
 11
98.0568612395043
 21
44.031666834720909
 31
0.0
  0
LINE
  5
694
  8
2
 62
     0
 10
130.45686123950421
 20
59.959977827206998
 30
0.0
 11
130.45686123950421
 21
44.031666834720909
 31
0.0
  0
LINE
  5
695
  8
2
 62
     0
 10
100.5568612395042
 20
45.281666834720909
 30
0.0
 11
127.95686123950421
 21
45.281666834720909
 31
0.0
  0
SOLID
  5
696
  8
2
 62
     0
 10
100.5568612395042
 20
45.698333501387573
 30
0.0
 11
100.5568612395042
 21
44.865000168054237
 31
0.0
 12
98.0568612395043
 22
45.281666834720909
 32
0.0
 13
98.0568612395043
 23
45.281666834720909
 33
0.0
  0
SOLID
  5
697
  8
2
 62
     0
 10
127.95686123950421
 20
45.698333501387573
 30
0.0
 11
127.95686123950421
 21
44.865000168054237
 31
0.0
 12
130.45686123950421
 22
45.281666834720909
 32
0.0
 13
130.45686123950421
 23
45.281666834720909
 33
0.0
  0
INSERT
  5
698
  8
2
  2
*U14
 10
0.0
 20
0.0
 30
0.0
  0
POINT
  5
699
  8
DEFPOINTS
 62
     0
 10
98.0568612395043
 20
60.584977827206941
 30
0.0
  0
POINT
  5
69A
  8
DEFPOINTS
 62
     0
 10
130.45686123950421
 20
60.584977827206998
 30
0.0
  0
POINT
  5
69B
  8
DEFPOINTS
 62
     0
 10
130.45686123950421
 20
45.281666834720909
 30
0.0
  0
ENDBLK
  5
657
  8
0
  0
BLOCK
  8
0
  2
*D9
 70
     1
 10
0.0
 20
0.0
 30
0.0
  3
*D9
  1

  0
LINE
  5
6AE
  8
2
 62
     0
 10
89.256861239504303
 20
54.068741552952439
 30
0.0
 11
89.256861239504303
 21
39.26137667441634
 31
0.0
  0
LINE
  5
6AF
  8
2
 62
     0
 10
139.2568612395043
 20
54.068741552952538
 30
0.0
 11
139.2568612395043
 21
39.26137667441634
 31
0.0
  0
LINE
  5
6B0
  8
2
 62
     0
 10
91.756861239504303
 20
40.51137667441634
 30
0.0
 11
136.7568612395043
 21
40.51137667441634
 31
0.0
  0
SOLID
  5
6B1
  8
2
 62
     0
 10
91.756861239504303
 20
40.928043341082997
 30
0.0
 11
91.756861239504303
 21
40.094710007749683
 31
0.0
 12
89.256861239504303
 22
40.51137667441634
 32
0.0
 13
89.256861239504303
 23
40.51137667441634
 33
0.0
  0
SOLID
  5
6B2
  8
2
 62
     0
 10
136.7568612395043
 20
40.928043341082997
 30
0.0
 11
136.7568612395043
 21
40.094710007749683
 31
0.0
 12
139.2568612395043
 22
40.51137667441634
 32
0.0
 13
139.2568612395043
 23
40.51137667441634
 33
0.0
  0
INSERT
  5
6B3
  8
2
  2
*U15
 10
0.0
 20
0.0
 30
0.0
  0
POINT
  5
6B4
  8
DEFPOINTS
 62
     0
 10
89.256861239504303
 20
54.693741552952439
 30
0.0
  0
POINT
  5
6B5
  8
DEFPOINTS
 62
     0
 10
139.2568612395043
 20
54.693741552952538
 30
0.0
  0
POINT
  5
6B6
  8
DEFPOINTS
 62
     0
 10
139.2568612395043
 20
40.51137667441634
 30
0.0
  0
ENDBLK
  5
664
  8
0
  0
BLOCK
  8
0
  2
*U10
 70
     1
 10
0.0
 20
0.0
 30
0.0
  3
*U10
  1

  0
TEXT
  5
71D
  8
2
 62
     0
 10
109.2568612395043
 20
115.12386415256989
 30
0.0
 40
2.5
  1
\U+2205
  0
TEXT
  5
71E
  8
2
 62
     0
 10
111.7568612395043
 20
115.12386415256989
 30
0.0
 40
2.5
  1
59.5
  0
ENDBLK
  5
720
  8
0
  0
BLOCK
  8
0
  2
*U11
 70
     1
 10
0.0
 20
0.0
 30
0.0
  3
*U11
  1

  0
TEXT
  5
722
  8
2
 62
     0
 10
109.2568612395043
 20
109.6986714851203
 30
0.0
 40
2.5
  1
\U+2205
  0
TEXT
  5
723
  8
2
 62
     0
 10
111.7568612395043
 20
109.6986714851203
 30
0.0
 40
2.5
  1
28.5
  0
ENDBLK
  5
725
  8
0
  0
BLOCK
  8
0
  2
*U12
 70
     1
 10
0.0
 20
0.0
 30
0.0
  3
*U12
  1

  0
TEXT
  5
727
  8
2
 62
     0
 10
111.1318612395043
 20
104.5858180422405
 30
0.0
 40
2.5
  1
\U+2205
  0
TEXT
  5
728
  8
2
 62
     0
 10
113.6318612395043
 20
104.5858180422405
 30
0.0
 40
2.5
  1
20
  0
ENDBLK
  5
72A
  8
0
  0
BLOCK
  8
0
  2
*U13
 70
     1
 10
0.0
 20
0.0
 30
0.0
  3
*U13
  1

  0
TEXT
  5
72C
  8
2
 62
     0
 10
112.1735279061709
 20
99.634579764171576
 30
0.0
 40
2.5
  1
\U+2205
  0
TEXT
  5
72D
  8
2
 62
     0
 10
114.6735279061709
 20
99.634579764171576
 30
0.0
 40
2.5
  1
8
  0
ENDBLK
  5
72F
  8
0
  0
BLOCK
  8
0
  2
*U14
 70
     1
 10
0.0
 20
0.0
 30
0.0
  3
*U14
  1

  0
TEXT
  5
731
  8
2
 62
     0
 10
109.2568612395043
 20
45.906666834720909
 30
0.0
 40
2.5
  1
\U+2205
  0
TEXT
  5
732
  8
2
 62
     0
 10
111.7568612395043
 20
45.906666834720909
 30
0.0
 40
2.5
  1
32.4
  0
ENDBLK
  5
734
  8
0
  0
BLOCK
  8
0
  2
*U15
 70
     1
 10
0.0
 20
0.0
 30
0.0
  3
*U15
  1

  0
TEXT
  5
736
  8
2
 62
     0
 10
111.1318612395043
 20
41.13637667441634
 30
0.0
 40
2.5
  1
\U+2205
  0
TEXT
  5
737
  8
2
 62
     0
 10
113.6318612395043
 20
41.13637667441634
 30
0.0
 40
2.5
  1
50
  0
ENDBLK
  5
739
  8
0
  0
ENDSEC
  0
SECTION
  2
ENTITIES
  0
TEXT
  5
127
  8
2
 10
95.489924418584891
 20
29.09570023981065
 30
0.0
 40
2.5399440000000002
  1
No. 23.050.127._
 51
-0.0000015352344868
  7
\U+00C9L\U+00C9R_\U+00C2S\U+00C2V\U+00C2B\U+00C2N
  0
POLYLINE
  5
13A
  8
0
 66
     1
 10
0.0
 20
0.0
 30
0.0
 39
6.2173588649999987
  0
VERTEX
  5
710
  8
0
 10
91.483421800073089
 20
67.506959819135645
 30
0.0
  0
VERTEX
  5
711
  8
0
 10
114.2568612395043
 20
67.506959819135645
 30
0.0
  0
SEQEND
  5
712
  8
0
  0
LINE
  5
201
  8
0
 39
6.2173588649999987
 10
90.609265687866255
 20
54.421533310324747
 30
0.0
 11
97.792797575968294
 21
59.898902123212451
 31
0.0
  0
LINE
  5
202
  8
0
 39
6.2173588649999987
 10
97.792797575968294
 20
59.898902123212451
 30
0.0
 11
97.792797575968294
 21
59.898902123212451
 31
0.0
  0
LINE
  5
203
  8
0
 39
6.2173588649999987
 10
97.792797575968294
 20
59.898902123212451
 30
0.0
 11
97.830723465044798
 21
59.979230399748253
 31
0.0
  0
LINE
  5
204
  8
0
 39
6.2173588649999987
 10
97.830723465044798
 20
59.979230399748253
 30
0.0
 11
97.878224086773415
 21
60.083930723034833
 31
0.0
  0
LINE
  5
205
  8
0
 39
6.2173588649999987
 10
97.878224086773415
 20
60.083930723034833
 30
0.0
 11
97.931569025835117
 21
60.210143107994341
 31
0.0
  0
LINE
  5
206
  8
0
 39
6.2173588649999987
 10
97.931569025835117
 20
60.210143107994341
 30
0.0
 11
97.986157436669799
 21
60.354758875194243
 31
0.0
  0
LINE
  5
207
  8
0
 39
6.2173588649999987
 10
97.986157436669799
 20
60.354758875194243
 30
0.0
 11
98.038507598313132
 21
60.515042386733938
 31
0.0
  0
LINE
  5
208
  8
0
 39
6.2173588649999987
 10
98.038507598313132
 20
60.515042386733938
 30
0.0
 11
98.0568612395043
 21
60.584977827206927
 31
0.0
  0
LINE
  5
20E
  8
0
 39
6.2173588649999987
 10
98.0568612395043
 20
61.645700998918457
 30
0.0
 11
97.980188772159394
 21
61.815713861291947
 31
0.0
  0
LINE
  5
20F
  8
0
 39
6.2173588649999987
 10
97.980188772159394
 20
61.815713861291947
 30
0.0
 11
97.861561565015222
 21
61.99141642281684
 31
0.0
  0
LINE
  5
210
  8
0
 39
6.2173588649999987
 10
97.861561565015222
 20
61.99141642281684
 30
0.0
 11
97.70277021960311
 21
62.155181655320952
 31
0.0
  0
LINE
  5
211
  8
0
 39
6.2173588649999987
 10
97.70277021960311
 20
62.155181655320952
 30
0.0
 11
97.499711279072216
 21
62.30452261525825
 31
0.0
  0
LINE
  5
212
  8
0
 39
6.2173588649999987
 10
97.499711279072216
 20
62.30452261525825
 30
0.0
 11
97.248032592217015
 21
62.435957581664347
 31
0.0
  0
LINE
  5
213
  8
0
 39
6.2173588649999987
 10
97.248032592217015
 20
62.435957581664347
 30
0.0
 11
89.225028365950493
 21
66.533818809585824
 31
0.0
  0
LINE
  5
214
  8
0
 39
6.2173588649999987
 10
89.225028365950493
 20
66.533818809585824
 30
0.0
 11
89.225028365950493
 21
66.533818809585824
 31
0.0
  0
LINE
  5
215
  8
0
 39
6.2173588649999987
 10
89.225028365950493
 20
66.533818809585824
 30
0.0
 11
89.029057214525722
 21
66.559061286577744
 31
0.0
  0
LINE
  5
216
  8
0
 39
6.2173588649999987
 10
89.029057214525722
 20
66.559061286577744
 30
0.0
 11
88.851986834050507
 21
66.600717590973247
 31
0.0
  0
LINE
  5
217
  8
0
 39
6.2173588649999987
 10
88.851986834050507
 20
66.600717590973247
 30
0.0
 11
88.695433737829788
 21
66.657419903822046
 31
0.0
  0
LINE
  5
218
  8
0
 39
6.2173588649999987
 10
88.695433737829788
 20
66.657419903822046
 30
0.0
 11
88.56001966175009
 21
66.727054323110039
 31
0.0
  0
LINE
  5
219
  8
0
 39
6.2173588649999987
 10
88.56001966175009
 20
66.727054323110039
 30
0.0
 11
88.447361119116309
 21
66.808377377064247
 31
0.0
  0
LINE
  5
21A
  8
0
 39
6.2173588649999987
 10
88.447361119116309
 20
66.808377377064247
 30
0.0
 11
88.358204192992218
 21
66.899275163670552
 31
0.0
  0
LINE
  5
21B
  8
0
 39
6.2173588649999987
 10
88.358204192992218
 20
66.899275163670552
 30
0.0
 11
88.293916702328104
 21
66.99825551680135
 31
0.0
  0
LINE
  5
21C
  8
0
 39
6.2173588649999987
 10
88.293916702328104
 20
66.99825551680135
 30
0.0
 11
88.255369077365117
 21
67.103328881619831
 31
0.0
  0
LINE
  5
21D
  8
0
 39
6.2173588649999987
 10
88.255369077365117
 20
67.103328881619831
 30
0.0
 11
88.244177831408109
 21
67.213251786353041
 31
0.0
  0
LINE
  5
21E
  8
0
 39
6.2173588649999987
 10
88.244177831408109
 20
67.213251786353041
 30
0.0
 11
88.260964700343607
 21
67.325910328986836
 31
0.0
  0
LINE
  5
21F
  8
0
 39
6.2173588649999987
 10
88.260964700343607
 20
67.325910328986836
 30
0.0
 11
88.307097503121909
 21
67.439812343393641
 31
0.0
  0
LINE
  5
220
  8
0
 39
6.2173588649999987
 10
88.307097503121909
 20
67.439812343393641
 30
0.0
 11
88.383446669984096
 21
67.552968274736656
 31
0.0
  0
LINE
  5
221
  8
0
 39
6.2173588649999987
 10
88.383446669984096
 20
67.552968274736656
 30
0.0
 11
88.491628714235105
 21
67.664010304065542
 31
0.0
  0
LINE
  5
222
  8
0
 39
6.2173588649999987
 10
88.491628714235105
 20
67.664010304065542
 30
0.0
 11
88.632389718938697
 21
67.770948876543542
 31
0.0
  0
LINE
  5
223
  8
0
 39
6.2173588649999987
 10
88.632389718938697
 20
67.770948876543542
 30
0.0
 11
88.806973155867894
 21
67.872167478865734
 31
0.0
  0
LINE
  5
224
  8
0
 39
6.2173588649999987
 10
88.806973155867894
 20
67.872167478865734
 30
0.0
 11
89.016373802441095
 21
67.965676556195334
 31
0.0
  0
LINE
  5
225
  8
0
 39
6.2173588649999987
 10
89.016373802441095
 20
67.965676556195334
 30
0.0
 11
98.016995536946993
 21
74.421533310324733
 31
0.0
  0
LINE
  5
226
  8
0
 39
6.2173588649999987
 10
98.016995536946993
 20
74.421533310324733
 30
0.0
 11
104.2568612395043
 21
74.421533310324747
 31
0.0
  0
LINE
  5
228
  8
0
 39
6.2173588649999987
 10
104.2531308257193
 20
79.52673102155353
 30
0.0
 11
114.2568612395043
 21
79.52673102155353
 31
0.0
  0
LINE
  5
22C
  8
0
 10
114.2568612395043
 20
74.421533310324733
 30
0.0
 11
107.3278634788164
 21
74.421533310324733
 31
0.0
  0
LINE
  5
22D
  8
0
 10
107.3278634788164
 20
74.478608664705433
 30
0.0
 11
107.3278634788164
 21
74.421533310324733
 31
0.0
  0
LINE
  5
237
  8
0
 39
6.2173588649999987
 10
114.2568612395043
 20
90.921533310324747
 30
0.0
 11
101.2194327411312
 21
90.921533310324747
 31
0.0
  0
LINE
  5
238
  8
0
 39
6.2173588649999987
 10
101.2194327411312
 20
90.921533310324747
 30
0.0
 11
100.0068612395043
 21
89.774248185873049
 31
0.0
  0
LINE
  5
23A
  8
0
 39
6.2173588649999987
 10
100.0068612395043
 20
80.18835559757521
 30
0.0
 11
86.493245227846785
 21
68.438693218644545
 31
0.0
  0
LINE
  5
23B
  8
0
 39
6.2173588649999987
 10
86.493245227846785
 20
68.438693218644545
 30
0.0
 11
84.506861239504303
 21
68.368254070121765
 31
0.0
  0
LINE
  5
23D
  8
0
 39
6.2173588649999987
 10
84.506861239504303
 20
66.033307313635476
 30
0.0
 11
85.759845576131411
 21
66.014918038712949
 31
0.0
  0
LINE
  5
23E
  8
0
 39
6.2173588649999987
 10
85.759845576131411
 20
66.014918038712949
 30
0.0
 11
95.330599118251001
 21
61.486939924510729
 31
0.0
  0
LINE
  5
23F
  8
0
 39
6.2173588649999987
 10
95.330599118251001
 20
61.486939924510729
 30
0.0
 11
95.330599118251001
 21
61.486939924510729
 31
0.0
  0
LINE
  5
240
  8
0
 39
6.2173588649999987
 10
95.330599118251001
 20
61.486939924510729
 30
0.0
 11
95.539004987405804
 21
61.396290832259048
 31
0.0
  0
LINE
  5
241
  8
0
 39
6.2173588649999987
 10
95.539004987405804
 20
61.396290832259048
 30
0.0
 11
95.721422296504912
 21
61.305268698475437
 31
0.0
  0
LINE
  5
242
  8
0
 39
6.2173588649999987
 10
95.721422296504912
 20
61.305268698475437
 30
0.0
 11
95.877975392725617
 21
61.214246564691841
 31
0.0
  0
LINE
  5
243
  8
0
 39
6.2173588649999987
 10
95.877975392725617
 20
61.214246564691841
 30
0.0
 11
96.007669498649506
 21
61.123224430908252
 31
0.0
  0
LINE
  5
244
  8
0
 39
6.2173588649999987
 10
96.007669498649506
 20
61.123224430908252
 30
0.0
 11
96.110504614276607
 21
61.03245099147923
 31
0.0
  0
LINE
  5
245
  8
0
 39
6.2173588649999987
 10
96.110504614276607
 20
61.03245099147923
 30
0.0
 11
96.185734656543119
 21
60.941428857695641
 31
0.0
  0
LINE
  5
246
  8
0
 39
6.2173588649999987
 10
96.185734656543119
 20
60.941428857695641
 30
0.0
 11
96.233110931094416
 21
60.850406723912037
 31
0.0
  0
LINE
  5
247
  8
0
 39
6.2173588649999987
 10
96.233110931094416
 20
60.850406723912037
 30
0.0
 11
96.251763007689405
 21
60.759384590128427
 31
0.0
  0
LINE
  5
248
  8
0
 39
6.2173588649999987
 10
96.251763007689405
 20
60.759384590128427
 30
0.0
 11
96.241939580682711
 21
60.668611150699441
 31
0.0
  0
LINE
  5
249
  8
0
 39
6.2173588649999987
 10
96.241939580682711
 20
60.668611150699441
 30
0.0
 11
96.202645872655907
 21
60.577589016915852
 31
0.0
  0
LINE
  5
24A
  8
0
 39
6.2173588649999987
 10
96.202645872655907
 20
60.577589016915852
 30
0.0
 11
96.133633189254425
 21
60.486566883132248
 31
0.0
  0
LINE
  5
24B
  8
0
 39
6.2173588649999987
 10
96.133633189254425
 20
60.486566883132248
 30
0.0
 11
96.034279794591711
 21
60.395544749348637
 31
0.0
  0
LINE
  5
24C
  8
0
 39
6.2173588649999987
 10
96.034279794591711
 20
60.395544749348637
 30
0.0
 11
95.904336994313198
 21
60.304522615565041
 31
0.0
  0
LINE
  5
24D
  8
0
 39
6.2173588649999987
 10
95.904336994313198
 20
60.304522615565041
 30
0.0
 11
95.743183052532416
 21
60.213500481781452
 31
0.0
  0
LINE
  5
24E
  8
0
 39
6.2173588649999987
 10
95.743183052532416
 20
60.213500481781452
 30
0.0
 11
95.550569274894698
 21
60.122478347997848
 31
0.0
  0
LINE
  5
24F
  8
0
 39
6.2173588649999987
 10
95.550569274894698
 20
60.122478347997848
 30
0.0
 11
95.325873925513605
 21
60.031456214214238
 31
0.0
  0
LINE
  5
250
  8
0
 39
6.2173588649999987
 10
95.325873925513605
 20
60.031456214214238
 30
0.0
 11
89.626545401452205
 21
55.415813340015553
 31
0.0
  0
LINE
  5
251
  8
0
 39
6.2173588649999987
 10
89.626545401452205
 20
55.415813340015553
 30
0.0
 11
89.626545401452205
 21
55.415813340015553
 31
0.0
  0
LINE
  5
252
  8
0
 39
6.2173588649999987
 10
89.626545401452205
 20
55.415813340015553
 30
0.0
 11
89.542984098306604
 21
55.350531071933027
 31
0.0
  0
LINE
  5
253
  8
0
 39
6.2173588649999987
 10
89.542984098306604
 20
55.350531071933027
 30
0.0
 11
89.465142765316813
 21
55.273933210716237
 31
0.0
  0
LINE
  5
254
  8
0
 39
6.2173588649999987
 10
89.465142765316813
 20
55.273933210716237
 30
0.0
 11
89.395383998851486
 21
55.188879741443053
 31
0.0
  0
LINE
  5
255
  8
0
 39
6.2173588649999987
 10
89.395383998851486
 20
55.188879741443053
 30
0.0
 11
89.335946048102102
 21
55.097608913304853
 31
0.0
  0
LINE
  5
256
  8
0
 39
6.2173588649999987
 10
89.335946048102102
 20
55.097608913304853
 30
0.0
 11
89.289315856614593
 21
55.003105058556841
 31
0.0
  0
LINE
  5
257
  8
0
 39
6.2173588649999987
 10
89.289315856614593
 20
55.003105058556841
 30
0.0
 11
89.257358632048494
 21
54.907606426390437
 31
0.0
  0
LINE
  5
258
  8
0
 39
6.2173588649999987
 10
89.257358632048494
 20
54.907606426390437
 30
0.0
 11
89.256861239504303
 21
54.904454880354137
 31
0.0
  0
LINE
  5
25A
  8
0
 39
6.2173588649999987
 10
89.256861239504303
 20
54.693741552952439
 30
0.0
 11
89.273523765097494
 21
54.641876508500353
 31
0.0
  0
LINE
  5
25B
  8
0
 39
6.2173588649999987
 10
89.273523765097494
 20
54.641876508500353
 30
0.0
 11
89.323635677549404
 21
54.568636021070638
 31
0.0
  0
LINE
  5
25C
  8
0
 39
6.2173588649999987
 10
89.323635677549404
 20
54.568636021070638
 30
0.0
 11
89.400109191588925
 21
54.507457209839039
 31
0.0
  0
LINE
  5
25D
  8
0
 39
6.2173588649999987
 10
89.400109191588925
 20
54.507457209839039
 30
0.0
 11
89.504560820520894
 21
54.460827018351537
 31
0.0
  0
LINE
  5
25E
  8
0
 39
6.2173588649999987
 10
89.504560820520894
 20
54.460827018351537
 30
0.0
 11
89.63997489660062
 21
54.431481084508739
 31
0.0
  0
LINE
  5
25F
  8
0
 39
6.2173588649999987
 10
89.63997489660062
 20
54.431481084508739
 30
0.0
 11
89.808092280310206
 21
54.421533310324747
 31
0.0
  0
LINE
  5
264
  8
0
 10
89.808092280310206
 20
54.421533310324747
 30
0.0
 11
114.2568612395043
 21
54.421533310324747
 31
0.0
  0
LINE
  5
4D1
  8
1
 10
114.2568612395043
 20
91.421533310324733
 30
0.0
 11
114.2568612395043
 21
53.92153331032474
 31
0.0
  0
LINE
  5
4D4
  8
0
 10
110.2568612395043
 20
90.921533310324747
 30
0.0
 11
110.2568612395043
 21
83.921533310324733
 31
0.0
  0
LINE
  5
4D5
  8
0
 10
104.2568612395043
 20
83.921533310324733
 30
0.0
 11
104.2568612395043
 21
74.421533310324747
 31
0.0
  0
LINE
  5
4D6
  8
0
 10
100.0068612395043
 20
89.774248185873049
 30
0.0
 11
100.0068612395043
 21
80.18835559757521
 31
0.0
  0
LINE
  5
4D7
  8
0
 10
114.2568612395043
 20
83.921533310324733
 30
0.0
 11
104.2568612395043
 21
83.921533310324733
 31
0.0
  0
LINE
  5
4E9
  8
0
 10
89.256861239504303
 20
54.904454880354137
 30
0.0
 11
89.256861239504303
 21
54.693741552952439
 31
0.0
  0
LINE
  5
51B
  8
0
 10
84.506861239504303
 20
68.368254070121765
 30
0.0
 11
84.506861239504303
 21
66.033307313635476
 31
0.0
  0
LINE
  5
53D
  8
0
 39
6.2173588649999987
 10
144.0068612395043
 20
66.033307313635476
 30
0.0
 11
142.75387690287721
 21
66.014918038712949
 31
0.0
  0
LINE
  5
53E
  8
0
 39
6.2173588649999987
 10
142.02047725116179
 20
68.438693218644545
 30
0.0
 11
144.0068612395043
 21
68.368254070121765
 31
0.0
  0
LINE
  5
53F
  8
0
 39
6.2173588649999987
 10
128.50686123950419
 20
80.18835559757521
 30
0.0
 11
142.02047725116179
 21
68.438693218644545
 31
0.0
  0
LINE
  5
540
  8
0
 39
6.2173588649999987
 10
127.29428973787741
 20
90.921533310324747
 30
0.0
 11
128.50686123950419
 21
89.774248185873049
 31
0.0
  0
LINE
  5
541
  8
0
 39
6.2173588649999987
 10
114.2568612395043
 20
90.921533310324747
 30
0.0
 11
127.29428973787741
 21
90.921533310324747
 31
0.0
  0
LINE
  5
542
  8
0
 39
6.2173588649999987
 10
124.2605916532893
 20
79.52673102155353
 30
0.0
 11
114.2568612395043
 21
79.52673102155353
 31
0.0
  0
LINE
  5
543
  8
0
 39
6.2173588649999987
 10
130.4967269420616
 20
74.421533310324733
 30
0.0
 11
124.2568612395043
 21
74.421533310324747
 31
0.0
  0
LINE
  5
544
  8
0
 39
6.2173588649999987
 10
139.49734867656741
 20
67.965676556195334
 30
0.0
 11
130.4967269420616
 21
74.421533310324733
 31
0.0
  0
LINE
  5
545
  8
0
 39
6.2173588649999987
 10
139.70674932314071
 20
67.872167478865734
 30
0.0
 11
139.49734867656741
 21
67.965676556195334
 31
0.0
  0
LINE
  5
546
  8
0
 39
6.2173588649999987
 10
139.88133276006991
 20
67.770948876543542
 30
0.0
 11
139.70674932314071
 21
67.872167478865734
 31
0.0
  0
LINE
  5
547
  8
0
 39
6.2173588649999987
 10
140.0220937647735
 20
67.664010304065542
 30
0.0
 11
139.88133276006991
 21
67.770948876543542
 31
0.0
  0
LINE
  5
548
  8
0
 39
6.2173588649999987
 10
140.13027580902451
 20
67.552968274736656
 30
0.0
 11
140.0220937647735
 21
67.664010304065542
 31
0.0
  0
LINE
  5
549
  8
0
 39
6.2173588649999987
 10
140.20662497588671
 20
67.439812343393641
 30
0.0
 11
140.13027580902451
 21
67.552968274736656
 31
0.0
  0
LINE
  5
54A
  8
0
 39
6.2173588649999987
 10
140.25275777866489
 20
67.325910328986836
 30
0.0
 11
140.20662497588671
 21
67.439812343393641
 31
0.0
  0
LINE
  5
54B
  8
0
 39
6.2173588649999987
 10
140.2695446476005
 20
67.213251786353041
 30
0.0
 11
140.25275777866489
 21
67.325910328986836
 31
0.0
  0
LINE
  5
54C
  8
0
 39
6.2173588649999987
 10
140.2583534016434
 20
67.103328881619831
 30
0.0
 11
140.2695446476005
 21
67.213251786353041
 31
0.0
  0
LINE
  5
54D
  8
0
 39
6.2173588649999987
 10
140.21980577668049
 20
66.99825551680135
 30
0.0
 11
140.2583534016434
 21
67.103328881619831
 31
0.0
  0
LINE
  5
54E
  8
0
 39
6.2173588649999987
 10
140.15551828601639
 20
66.899275163670552
 30
0.0
 11
140.21980577668049
 21
66.99825551680135
 31
0.0
  0
LINE
  5
54F
  8
0
 39
6.2173588649999987
 10
140.06636135989231
 20
66.808377377064247
 30
0.0
 11
140.15551828601639
 21
66.899275163670552
 31
0.0
  0
LINE
  5
550
  8
0
 39
6.2173588649999987
 10
139.95370281725849
 20
66.727054323110039
 30
0.0
 11
140.06636135989231
 21
66.808377377064247
 31
0.0
  0
LINE
  5
551
  8
0
 39
6.2173588649999987
 10
139.8182887411788
 20
66.657419903822046
 30
0.0
 11
139.95370281725849
 21
66.727054323110039
 31
0.0
  0
LINE
  5
552
  8
0
 39
6.2173588649999987
 10
139.66173564495799
 20
66.600717590973247
 30
0.0
 11
139.8182887411788
 21
66.657419903822046
 31
0.0
  0
LINE
  5
553
  8
0
 39
6.2173588649999987
 10
139.4846652644828
 20
66.559061286577744
 30
0.0
 11
139.66173564495799
 21
66.600717590973247
 31
0.0
  0
LINE
  5
554
  8
0
 39
6.2173588649999987
 10
139.28869411305811
 20
66.533818809585824
 30
0.0
 11
139.4846652644828
 21
66.559061286577744
 31
0.0
  0
LINE
  5
555
  8
0
 39
6.2173588649999987
 10
139.28869411305811
 20
66.533818809585824
 30
0.0
 11
139.28869411305811
 21
66.533818809585824
 31
0.0
  0
POLYLINE
  5
56A
  8
0
 66
     1
 10
0.0
 20
0.0
 30
0.0
 39
6.2173588649999987
  0
VERTEX
  5
713
  8
0
 10
128.41328998640009
 20
61.295072229936849
 30
0.0
  0
VERTEX
  5
714
  8
0
 10
114.2568612395042
 20
61.295072229936849
 30
0.0
  0
SEQEND
  5
715
  8
0
  0
POLYLINE
  5
56B
  8
0
 66
     1
 10
0.0
 20
0.0
 30
0.0
 39
6.2173588649999987
  0
VERTEX
  5
716
  8
0
 10
137.0303006789355
 20
67.506959819135645
 30
0.0
  0
VERTEX
  5
717
  8
0
 10
114.2568612395042
 20
67.506959819135645
 30
0.0
  0
SEQEND
  5
718
  8
0
  0
LINE
  5
56C
  8
0
 10
138.70563019869829
 20
54.421533310324747
 30
0.0
 11
114.2568612395043
 21
54.421533310324747
 31
0.0
  0
LINE
  5
56E
  8
0
 10
114.2568612395043
 20
83.921533310324733
 30
0.0
 11
124.2568612395043
 21
83.921533310324733
 31
0.0
  0
LINE
  5
56F
  8
0
 10
114.2568612395043
 20
74.421533310324733
 30
0.0
 11
121.1858590001922
 21
74.421533310324733
 31
0.0
  0
LINE
  5
570
  8
0
 10
124.2568612395043
 20
83.921533310324733
 30
0.0
 11
124.2568612395043
 21
74.421533310324747
 31
0.0
  0
LINE
  5
571
  8
0
 10
144.0068612395043
 20
68.368254070121765
 30
0.0
 11
144.0068612395043
 21
66.033307313635476
 31
0.0
  0
LINE
  5
572
  8
0
 10
121.1858590001922
 20
74.478608664705433
 30
0.0
 11
121.1858590001922
 21
74.421533310324733
 31
0.0
  0
LINE
  5
573
  8
0
 10
118.2568612395042
 20
90.921533310324747
 30
0.0
 11
118.2568612395042
 21
83.921533310324733
 31
0.0
  0
LINE
  5
574
  8
0
 10
128.50686123950419
 20
89.774248185873049
 30
0.0
 11
128.50686123950419
 21
80.18835559757521
 31
0.0
  0
DIMENSION
  5
579
  8
2
  2
*D1
 10
118.2568612395042
 20
99.009579764171576
 30
0.0
 11
114.2568612395043
 21
100.88457976417151
 31
0.0
 70
     0
  1
%%c<>
 13
110.2568612395043
 23
90.921533310324747
 33
0.0
 14
118.2568612395042
 24
90.921533310324747
 34
0.0
  0
DIMENSION
  5
586
  8
2
  2
*D2
 10
124.2568612395043
 20
103.9608180422405
 30
0.0
 11
114.2568612395043
 21
105.8358180422405
 31
0.0
 70
     0
  1
%%c<>
 13
104.2568612395043
 23
83.921533310324733
 33
0.0
 14
124.2568612395043
 24
83.921533310324733
 34
0.0
  0
DIMENSION
  5
593
  8
2
  2
*D3
 10
128.50686123950419
 20
109.0736714851203
 30
0.0
 11
114.2568612395043
 21
110.9486714851203
 31
0.0
 70
     0
  1
%%c<>
 13
100.0068612395043
 23
89.774248185873049
 33
0.0
 14
128.50686123950419
 24
89.774248185873049
 34
0.0
  0
DIMENSION
  5
5A0
  8
2
  2
*D4
 10
148.85530408686671
 20
83.921533310324733
 30
0.0
 11
148.8553040868666
 21
87.764474593361228
 31
0.0
 70
   128
 13
127.29428973787741
 23
90.921533310324747
 33
0.0
 14
124.2568612395043
 24
83.921533310324733
 34
0.0
 50
90.0
  0
DIMENSION
  5
5AE
  8
2
  2
*D5
 10
155.54799171779189
 20
54.42153331032474
 30
0.0
 11
155.54799171779189
 21
73.234915323042344
 31
0.0
 70
   128
 13
127.29428973787741
 23
90.921533310324747
 33
0.0
 14
138.70563019869829
 24
54.421533310324747
 34
0.0
 50
90.0
  0
DIMENSION
  5
5E6
  8
2
  2
*D6
 10
144.0068612395043
 20
114.49886415256989
 30
0.0
 11
114.2568612395043
 21
116.37386415256989
 31
0.0
 70
     0
  1
%%c<>
 13
84.506861239504303
 23
68.368254070121765
 33
0.0
 14
144.0068612395043
 24
68.368254070121765
 34
0.0
  0
DIMENSION
  5
5F3
  8
2
  2
*D7
 10
73.780805553017785
 20
74.421533310324747
 30
0.0
 11
71.905805553017771
 21
64.421533310324762
 31
0.0
 70
     0
 13
90.609265687866255
 23
54.421533310324747
 33
0.0
 14
98.016995536946993
 24
74.421533310324733
 34
0.0
 50
90.0
  0
LINE
  5
613
  8
0
 10
98.0568612395043
 20
61.645700998918457
 30
0.0
 11
98.0568612395043
 21
60.584977827206941
 31
0.0
  0
LINE
  5
618
  8
0
 39
6.2173588649999987
 10
131.26568988679151
 20
62.435957581664418
 30
0.0
 11
139.288694113058
 21
66.533818809585938
 31
0.0
  0
LINE
  5
619
  8
0
 39
6.2173588649999987
 10
142.7538769028771
 20
66.014918038713063
 30
0.0
 11
133.18312336075749
 21
61.486939924510807
 31
0.0
  0
LINE
  5
61A
  8
0
 39
6.2173588649999987
 10
130.7209249030403
 20
59.898902123212522
 30
0.0
 11
130.7209249030403
 21
59.898902123212522
 31
0.0
  0
LINE
  5
61B
  8
0
 39
6.2173588649999987
 10
130.7209249030403
 20
59.898902123212522
 30
0.0
 11
130.68299901396381
 21
59.97923039974831
 31
0.0
  0
LINE
  5
61C
  8
0
 39
6.2173588649999987
 10
130.68299901396381
 20
59.97923039974831
 30
0.0
 11
130.63549839223521
 21
60.083930723034911
 31
0.0
  0
LINE
  5
61D
  8
0
 39
6.2173588649999987
 10
130.63549839223521
 20
60.083930723034911
 30
0.0
 11
130.58215345317339
 21
60.210143107994398
 31
0.0
  0
LINE
  5
61E
  8
0
 39
6.2173588649999987
 10
130.58215345317339
 20
60.210143107994398
 30
0.0
 11
130.52756504233869
 21
60.3547588751943
 31
0.0
  0
LINE
  5
61F
  8
0
 39
6.2173588649999987
 10
130.52756504233869
 20
60.3547588751943
 30
0.0
 11
130.4752148806954
 21
60.515042386734002
 31
0.0
  0
LINE
  5
620
  8
0
 39
6.2173588649999987
 10
130.53353370684911
 20
61.815713861292011
 30
0.0
 11
130.6521609139933
 21
61.991416422816911
 31
0.0
  0
LINE
  5
621
  8
0
 39
6.2173588649999987
 10
130.6521609139933
 20
61.991416422816911
 30
0.0
 11
130.81095225940541
 21
62.155181655321009
 31
0.0
  0
LINE
  5
622
  8
0
 39
6.2173588649999987
 10
130.81095225940541
 20
62.155181655321009
 30
0.0
 11
131.01401119993631
 21
62.304522615258307
 31
0.0
  0
LINE
  5
623
  8
0
 39
6.2173588649999987
 10
131.01401119993631
 20
62.304522615258307
 30
0.0
 11
131.26568988679151
 21
62.435957581664418
 31
0.0
  0
LINE
  5
624
  8
0
 39
6.2173588649999987
 10
133.18312336075749
 20
61.486939924510807
 30
0.0
 11
133.18312336075749
 21
61.486939924510807
 31
0.0
  0
LINE
  5
625
  8
0
 39
6.2173588649999987
 10
133.18312336075749
 20
61.486939924510807
 30
0.0
 11
132.97471749160269
 21
61.396290832259119
 31
0.0
  0
LINE
  5
626
  8
0
 39
6.2173588649999987
 10
132.97471749160269
 20
61.396290832259119
 30
0.0
 11
132.7923001825036
 21
61.305268698475508
 31
0.0
  0
LINE
  5
627
  8
0
 39
6.2173588649999987
 10
132.7923001825036
 20
61.305268698475508
 30
0.0
 11
132.63574708628289
 21
61.214246564691919
 31
0.0
  0
LINE
  5
628
  8
0
 39
6.2173588649999987
 10
132.63574708628289
 20
61.214246564691919
 30
0.0
 11
132.50605298035899
 21
61.123224430908323
 31
0.0
  0
LINE
  5
629
  8
0
 39
6.2173588649999987
 10
132.50605298035899
 20
61.123224430908323
 30
0.0
 11
132.40321786473189
 21
61.032450991479308
 31
0.0
  0
LINE
  5
62A
  8
0
 39
6.2173588649999987
 10
132.40321786473189
 20
61.032450991479308
 30
0.0
 11
132.32798782246539
 21
60.941428857695712
 31
0.0
  0
LINE
  5
62B
  8
0
 39
6.2173588649999987
 10
132.32798782246539
 20
60.941428857695712
 30
0.0
 11
132.28061154791411
 21
60.850406723912108
 31
0.0
  0
LINE
  5
62C
  8
0
 39
6.2173588649999987
 10
132.28061154791411
 20
60.850406723912108
 30
0.0
 11
132.2619594713191
 21
60.759384590128498
 31
0.0
  0
LINE
  5
62D
  8
0
 39
6.2173588649999987
 10
132.2619594713191
 20
60.759384590128498
 30
0.0
 11
132.2717828983258
 21
60.668611150699519
 31
0.0
  0
LINE
  5
62E
  8
0
 39
6.2173588649999987
 10
132.2717828983258
 20
60.668611150699519
 30
0.0
 11
132.3110766063526
 21
60.577589016915923
 31
0.0
  0
LINE
  5
62F
  8
0
 39
6.2173588649999987
 10
132.3110766063526
 20
60.577589016915923
 30
0.0
 11
132.3800892897541
 21
60.486566883132319
 31
0.0
  0
LINE
  5
630
  8
0
 39
6.2173588649999987
 10
132.3800892897541
 20
60.486566883132319
 30
0.0
 11
132.4794426844168
 21
60.395544749348709
 31
0.0
  0
LINE
  5
631
  8
0
 39
6.2173588649999987
 10
132.4794426844168
 20
60.395544749348709
 30
0.0
 11
132.60938548469531
 21
60.304522615565112
 31
0.0
  0
LINE
  5
632
  8
0
 39
6.2173588649999987
 10
132.60938548469531
 20
60.304522615565112
 30
0.0
 11
132.77053942647609
 21
60.21350048178153
 31
0.0
  0
LINE
  5
633
  8
0
 39
6.2173588649999987
 10
132.77053942647609
 20
60.21350048178153
 30
0.0
 11
132.96315320411381
 21
60.122478347997919
 31
0.0
  0
LINE
  5
634
  8
0
 39
6.2173588649999987
 10
132.96315320411381
 20
60.122478347997919
 30
0.0
 11
133.18784855349489
 21
60.031456214214323
 31
0.0
  0
LINE
  5
635
  8
0
 39
6.2173588649999987
 10
130.45686123950421
 20
61.645700998918521
 30
0.0
 11
130.53353370684911
 21
61.815713861292011
 31
0.0
  0
LINE
  5
636
  8
0
 39
6.2173588649999987
 10
137.90445679114231
 20
54.42153331032484
 30
0.0
 11
130.7209249030403
 21
59.898902123212522
 31
0.0
  0
LINE
  5
637
  8
0
 39
6.2173588649999987
 10
133.18784855349489
 20
60.031456214214323
 30
0.0
 11
138.8871770775564
 21
55.415813340015639
 31
0.0
  0
LINE
  5
638
  8
0
 39
6.2173588649999987
 10
130.4752148806954
 20
60.515042386734002
 30
0.0
 11
130.45686123950421
 21
60.584977827206991
 31
0.0
  0
LINE
  5
639
  8
0
 39
6.2173588649999987
 10
138.8737475824079
 20
54.431481084508839
 30
0.0
 11
138.70563019869829
 21
54.421533310324847
 31
0.0
  0
LINE
  5
63A
  8
0
 39
6.2173588649999987
 10
139.0091616584877
 20
54.460827018351637
 30
0.0
 11
138.8737475824079
 21
54.431481084508839
 31
0.0
  0
LINE
  5
63B
  8
0
 39
6.2173588649999987
 10
139.11361328741961
 20
54.507457209839131
 30
0.0
 11
139.0091616584877
 21
54.460827018351637
 31
0.0
  0
LINE
  5
63C
  8
0
 39
6.2173588649999987
 10
139.1900868014591
 20
54.568636021070731
 30
0.0
 11
139.11361328741961
 21
54.507457209839131
 31
0.0
  0
LINE
  5
63D
  8
0
 39
6.2173588649999987
 10
139.2401987139111
 20
54.641876508500438
 30
0.0
 11
139.1900868014591
 21
54.568636021070731
 31
0.0
  0
LINE
  5
63E
  8
0
 39
6.2173588649999987
 10
139.2568612395043
 20
54.693741552952538
 30
0.0
 11
139.2401987139111
 21
54.641876508500438
 31
0.0
  0
LINE
  5
63F
  8
0
 39
6.2173588649999987
 10
139.25636384696011
 20
54.907606426390529
 30
0.0
 11
139.2568612395043
 21
54.90445488035423
 31
0.0
  0
LINE
  5
640
  8
0
 39
6.2173588649999987
 10
139.22440662239401
 20
55.00310505855694
 30
0.0
 11
139.25636384696011
 21
54.907606426390529
 31
0.0
  0
LINE
  5
641
  8
0
 39
6.2173588649999987
 10
139.17777643090639
 20
55.097608913304953
 30
0.0
 11
139.22440662239401
 21
55.00310505855694
 31
0.0
  0
LINE
  5
642
  8
0
 39
6.2173588649999987
 10
139.11833848015701
 20
55.188879741443138
 30
0.0
 11
139.17777643090639
 21
55.097608913304953
 31
0.0
  0
LINE
  5
643
  8
0
 39
6.2173588649999987
 10
139.04857971369179
 20
55.273933210716343
 30
0.0
 11
139.11833848015701
 21
55.188879741443138
 31
0.0
  0
LINE
  5
644
  8
0
 39
6.2173588649999987
 10
138.97073838070199
 20
55.350531071933133
 30
0.0
 11
139.04857971369179
 21
55.273933210716343
 31
0.0
  0
LINE
  5
645
  8
0
 39
6.2173588649999987
 10
138.8871770775564
 20
55.415813340015639
 30
0.0
 11
138.97073838070199
 21
55.350531071933133
 31
0.0
  0
LINE
  5
646
  8
0
 39
6.2173588649999987
 10
138.8871770775564
 20
55.415813340015639
 30
0.0
 11
138.8871770775564
 21
55.415813340015639
 31
0.0
  0
LINE
  5
647
  8
0
 10
139.2568612395043
 20
54.90445488035423
 30
0.0
 11
139.2568612395043
 21
54.693741552952538
 31
0.0
  0
LINE
  5
648
  8
0
 10
130.45686123950421
 20
61.645700998918521
 30
0.0
 11
130.45686123950421
 21
60.584977827206998
 31
0.0
  0
POLYLINE
  5
649
  8
0
 66
     1
 10
0.0
 20
0.0
 30
0.0
 39
6.2173588649999987
  0
VERTEX
  5
719
  8
0
 10
100.0568612395043
 20
61.295072229936849
 30
0.0
  0
VERTEX
  5
71A
  8
0
 10
114.2568612395043
 20
61.295072229936849
 30
0.0
  0
SEQEND
  5
71B
  8
0
  0
DIMENSION
  5
64B
  8
2
  2
*D8
 10
130.45686123950421
 20
45.281666834720909
 30
0.0
 11
114.2568612395043
 21
47.156666834720909
 31
0.0
 70
     0
  1
%%c<>
 13
98.0568612395043
 23
60.584977827206941
 33
0.0
 14
130.45686123950421
 24
60.584977827206998
 34
0.0
  0
DIMENSION
  5
658
  8
2
  2
*D9
 10
139.2568612395043
 20
40.51137667441634
 30
0.0
 11
114.2568612395043
 21
42.38637667441634
 31
0.0
 70
     0
  1
%%c<>
 13
89.256861239504303
 23
54.693741552952439
 33
0.0
 14
139.2568612395043
 24
54.693741552952538
 34
0.0
1001
ACAD
1000
DSTYLE
1002
{
1070
   271
1070
     6
1002
}
  0
LINE
  5
6B7
  8
0
 39
6.2173588649999987
 10
107.3278634788164
 20
74.478608664705433
 30
0.0
 11
107.3278634788164
 21
74.478608664705433
 31
0.0
  0
LINE
  5
6B8
  8
0
 39
6.2173588649999987
 10
107.3278634788164
 20
74.478608664705433
 30
0.0
 11
107.3278634788164
 21
74.478608664705433
 31
0.0
  0
LINE
  5
6B9
  8
0
 39
6.2173588649999987
 10
107.3278634788164
 20
74.478608664705433
 30
0.0
 11
107.3278634788164
 21
74.478608664705433
 31
0.0
  0
LINE
  5
6BA
  8
0
 39
6.2173588649999987
 10
107.3278634788164
 20
74.478608664705433
 30
0.0
 11
107.3278634788164
 21
74.478608664705433
 31
0.0
  0
LINE
  5
6BB
  8
0
 39
6.2173588649999987
 10
107.3278634788164
 20
74.478608664705433
 30
0.0
 11
107.3278634788164
 21
74.478608664705433
 31
0.0
  0
LINE
  5
6BC
  8
0
 39
6.2173588649999987
 10
107.3278634788164
 20
74.478608664705433
 30
0.0
 11
107.3278634788164
 21
74.478608664705433
 31
0.0
  0
LINE
  5
6BD
  8
0
 39
6.2173588649999987
 10
107.3278634788164
 20
74.478608664705433
 30
0.0
 11
107.3278634788164
 21
74.478608664705433
 31
0.0
  0
LINE
  5
6BE
  8
0
 39
6.2173588649999987
 10
107.3278634788164
 20
74.478608664705433
 30
0.0
 11
107.3278634788164
 21
74.478608664705433
 31
0.0
  0
LINE
  5
6BF
  8
0
 39
6.2173588649999987
 10
107.3278634788164
 20
74.478608664705433
 30
0.0
 11
107.3278634788164
 21
74.478608664705433
 31
0.0
  0
LINE
  5
6C0
  8
0
 39
6.2173588649999987
 10
107.3278634788164
 20
74.478608664705433
 30
0.0
 11
107.3278634788164
 21
74.478608664705433
 31
0.0
  0
LINE
  5
6C1
  8
0
 39
6.2173588649999987
 10
107.3278634788164
 20
74.478608664705433
 30
0.0
 11
107.3278634788164
 21
74.478608664705433
 31
0.0
  0
LINE
  5
6C2
  8
0
 39
6.2173588649999987
 10
107.3278634788164
 20
74.478608664705433
 30
0.0
 11
107.3278634788164
 21
74.478608664705433
 31
0.0
  0
LINE
  5
6C3
  8
0
 39
6.2173588649999987
 10
107.3278634788164
 20
74.478608664705433
 30
0.0
 11
107.3278634788164
 21
74.478608664705433
 31
0.0
  0
LINE
  5
6C4
  8
0
 39
6.2173588649999987
 10
107.3278634788164
 20
74.478608664705433
 30
0.0
 11
107.3278634788164
 21
74.478608664705433
 31
0.0
  0
LINE
  5
6C5
  8
0
 39
6.2173588649999987
 10
107.3278634788164
 20
74.478608664705433
 30
0.0
 11
107.3278634788164
 21
74.478608664705433
 31
0.0
  0
LINE
  5
6C6
  8
0
 39
6.2173588649999987
 10
107.3278634788164
 20
74.478608664705433
 30
0.0
 11
107.3278634788164
 21
74.478608664705433
 31
0.0
  0
LINE
  5
6C7
  8
0
 39
6.2173588649999987
 10
107.3278634788164
 20
74.478608664705433
 30
0.0
 11
107.3278634788164
 21
74.478608664705433
 31
0.0
  0
LINE
  5
6C8
  8
0
 39
6.2173588649999987
 10
107.3278634788164
 20
74.478608664705433
 30
0.0
 11
107.3278634788164
 21
74.478608664705433
 31
0.0
  0
LINE
  5
6C9
  8
0
 39
6.2173588649999987
 10
107.3278634788164
 20
74.478608664705433
 30
0.0
 11
107.3399251550145
 21
74.861597970789433
 31
0.0
  0
LINE
  5
6CA
  8
0
 39
6.2173588649999987
 10
107.3399251550145
 20
74.861597970789433
 30
0.0
 11
107.3756127948996
 21
75.240732514377115
 31
0.0
  0
LINE
  5
6CB
  8
0
 39
6.2173588649999987
 10
107.3756127948996
 20
75.240732514377115
 30
0.0
 11
107.4344290097625
 21
75.61551490675933
 31
0.0
  0
LINE
  5
6CC
  8
0
 39
6.2173588649999987
 10
107.4344290097625
 20
75.61551490675933
 30
0.0
 11
107.51587641089399
 21
75.984950370517637
 31
0.0
  0
LINE
  5
6CD
  8
0
 39
6.2173588649999987
 10
107.51587641089399
 20
75.984950370517637
 30
0.0
 11
107.6198306511167
 21
76.348292822588249
 31
0.0
  0
LINE
  5
6CE
  8
0
 39
6.2173588649999987
 10
107.6198306511167
 20
76.348292822588249
 30
0.0
 11
107.74554564736709
 21
76.704547485552723
 31
0.0
  0
LINE
  5
6CF
  8
0
 39
6.2173588649999987
 10
107.74554564736709
 20
76.704547485552723
 30
0.0
 11
107.89264835811299
 21
77.052968276347343
 31
0.0
  0
LINE
  5
6D0
  8
0
 39
6.2173588649999987
 10
107.89264835811299
 20
77.052968276347343
 30
0.0
 11
108.06039270029071
 21
77.392436070376334
 31
0.0
  0
LINE
  5
6D1
  8
0
 39
6.2173588649999987
 10
108.06039270029071
 20
77.392436070376334
 30
0.0
 11
108.2489030210775
 21
77.722577826107823
 31
0.0
  0
LINE
  5
6D2
  8
0
 39
6.2173588649999987
 10
108.2489030210775
 20
77.722577826107823
 30
0.0
 11
108.4573088902323
 21
78.042150071768845
 31
0.0
  0
LINE
  5
6D3
  8
0
 39
6.2173588649999987
 10
108.4573088902323
 20
78.042150071768845
 30
0.0
 11
108.6853616134004
 21
78.35053107147283
 31
0.0
  0
LINE
  5
6D4
  8
0
 39
6.2173588649999987
 10
108.6853616134004
 20
78.35053107147283
 30
0.0
 11
108.93231510751831
 21
78.646477353446826
 31
0.0
  0
LINE
  5
6D5
  8
0
 39
6.2173588649999987
 10
108.93231510751831
 20
78.646477353446826
 30
0.0
 11
109.1981693725857
 21
78.929740223336239
 31
0.0
  0
LINE
  5
6D6
  8
0
 39
6.2173588649999987
 10
109.1981693725857
 20
78.929740223336239
 30
0.0
 11
109.4819296311843
 21
79.198951862190725
 31
0.0
  0
LINE
  5
6D7
  8
0
 39
6.2173588649999987
 10
109.4819296311843
 20
79.198951862190725
 30
0.0
 11
109.78359588331401
 21
79.45349053412383
 31
0.0
  0
LINE
  5
6D8
  8
0
 39
6.2173588649999987
 10
109.78359588331401
 20
79.45349053412383
 30
0.0
 11
109.88137708643799
 21
79.52673102155353
 31
0.0
  0
LINE
  5
6D9
  8
0
 39
6.2173588649999987
 10
121.1858590001922
 20
74.478608664705433
 30
0.0
 11
121.1858590001922
 21
74.478608664705433
 31
0.0
  0
LINE
  5
6DA
  8
0
 39
6.2173588649999987
 10
121.1858590001922
 20
74.478608664705433
 30
0.0
 11
121.1858590001922
 21
74.478608664705433
 31
0.0
  0
LINE
  5
6DB
  8
0
 39
6.2173588649999987
 10
121.1858590001922
 20
74.478608664705433
 30
0.0
 11
121.1858590001922
 21
74.478608664705433
 31
0.0
  0
LINE
  5
6DC
  8
0
 39
6.2173588649999987
 10
121.1858590001922
 20
74.478608664705433
 30
0.0
 11
121.1858590001922
 21
74.478608664705433
 31
0.0
  0
LINE
  5
6DD
  8
0
 39
6.2173588649999987
 10
121.1858590001922
 20
74.478608664705433
 30
0.0
 11
121.1858590001922
 21
74.478608664705433
 31
0.0
  0
LINE
  5
6DE
  8
0
 39
6.2173588649999987
 10
121.1858590001922
 20
74.478608664705433
 30
0.0
 11
121.1858590001922
 21
74.478608664705433
 31
0.0
  0
LINE
  5
6DF
  8
0
 39
6.2173588649999987
 10
121.1858590001922
 20
74.478608664705433
 30
0.0
 11
121.1858590001922
 21
74.478608664705433
 31
0.0
  0
LINE
  5
6E0
  8
0
 39
6.2173588649999987
 10
121.1858590001922
 20
74.478608664705433
 30
0.0
 11
121.1858590001922
 21
74.478608664705433
 31
0.0
  0
LINE
  5
6E1
  8
0
 39
6.2173588649999987
 10
121.1858590001922
 20
74.478608664705433
 30
0.0
 11
121.1858590001922
 21
74.478608664705433
 31
0.0
  0
LINE
  5
6E2
  8
0
 39
6.2173588649999987
 10
121.1858590001922
 20
74.478608664705433
 30
0.0
 11
121.1858590001922
 21
74.478608664705433
 31
0.0
  0
LINE
  5
6E3
  8
0
 39
6.2173588649999987
 10
121.1858590001922
 20
74.478608664705433
 30
0.0
 11
121.1858590001922
 21
74.478608664705433
 31
0.0
  0
LINE
  5
6E4
  8
0
 39
6.2173588649999987
 10
121.1858590001922
 20
74.478608664705433
 30
0.0
 11
121.1858590001922
 21
74.478608664705433
 31
0.0
  0
LINE
  5
6E5
  8
0
 39
6.2173588649999987
 10
121.1858590001922
 20
74.478608664705433
 30
0.0
 11
121.1858590001922
 21
74.478608664705433
 31
0.0
  0
LINE
  5
6E6
  8
0
 39
6.2173588649999987
 10
121.1858590001922
 20
74.478608664705433
 30
0.0
 11
121.1858590001922
 21
74.478608664705433
 31
0.0
  0
LINE
  5
6E7
  8
0
 39
6.2173588649999987
 10
121.1858590001922
 20
74.478608664705433
 30
0.0
 11
121.1858590001922
 21
74.478608664705433
 31
0.0
  0
LINE
  5
6E8
  8
0
 39
6.2173588649999987
 10
121.1858590001922
 20
74.478608664705433
 30
0.0
 11
121.1858590001922
 21
74.478608664705433
 31
0.0
  0
LINE
  5
6E9
  8
0
 39
6.2173588649999987
 10
121.1858590001922
 20
74.478608664705433
 30
0.0
 11
121.1858590001922
 21
74.478608664705433
 31
0.0
  0
LINE
  5
6EA
  8
0
 39
6.2173588649999987
 10
121.1858590001922
 20
74.478608664705433
 30
0.0
 11
121.1858590001922
 21
74.478608664705433
 31
0.0
  0
LINE
  5
6EB
  8
0
 39
6.2173588649999987
 10
121.1858590001922
 20
74.478608664705433
 30
0.0
 11
121.17379732399399
 21
74.861597970789433
 31
0.0
  0
LINE
  5
6EC
  8
0
 39
6.2173588649999987
 10
121.17379732399399
 20
74.861597970789433
 30
0.0
 11
121.1381096841089
 21
75.240732514377115
 31
0.0
  0
LINE
  5
6ED
  8
0
 39
6.2173588649999987
 10
121.1381096841089
 20
75.240732514377115
 30
0.0
 11
121.079293469246
 21
75.61551490675933
 31
0.0
  0
LINE
  5
6EE
  8
0
 39
6.2173588649999987
 10
121.079293469246
 20
75.61551490675933
 30
0.0
 11
120.9978460681145
 21
75.984950370517637
 31
0.0
  0
LINE
  5
6EF
  8
0
 39
6.2173588649999987
 10
120.9978460681145
 20
75.984950370517637
 30
0.0
 11
120.89389182789181
 21
76.348292822588249
 31
0.0
  0
LINE
  5
6F0
  8
0
 39
6.2173588649999987
 10
120.89389182789181
 20
76.348292822588249
 30
0.0
 11
120.7681768316414
 21
76.704547485552723
 31
0.0
  0
LINE
  5
6F1
  8
0
 39
6.2173588649999987
 10
120.7681768316414
 20
76.704547485552723
 30
0.0
 11
120.6210741208955
 21
77.052968276347343
 31
0.0
  0
LINE
  5
6F2
  8
0
 39
6.2173588649999987
 10
120.6210741208955
 20
77.052968276347343
 30
0.0
 11
120.4533297787178
 21
77.392436070376334
 31
0.0
  0
LINE
  5
6F3
  8
0
 39
6.2173588649999987
 10
120.4533297787178
 20
77.392436070376334
 30
0.0
 11
120.2648194579311
 21
77.722577826107823
 31
0.0
  0
LINE
  5
6F4
  8
0
 39
6.2173588649999987
 10
120.2648194579311
 20
77.722577826107823
 30
0.0
 11
120.05641358877629
 21
78.042150071768845
 31
0.0
  0
LINE
  5
6F5
  8
0
 39
6.2173588649999987
 10
120.05641358877629
 20
78.042150071768845
 30
0.0
 11
119.8283608656081
 21
78.35053107147283
 31
0.0
  0
LINE
  5
6F6
  8
0
 39
6.2173588649999987
 10
119.8283608656081
 20
78.35053107147283
 30
0.0
 11
119.5814073714903
 21
78.646477353446826
 31
0.0
  0
LINE
  5
6F7
  8
0
 39
6.2173588649999987
 10
119.5814073714903
 20
78.646477353446826
 30
0.0
 11
119.3155531064228
 21
78.929740223336239
 31
0.0
  0
LINE
  5
6F8
  8
0
 39
6.2173588649999987
 10
119.3155531064228
 20
78.929740223336239
 30
0.0
 11
119.03179284782431
 21
79.198951862190725
 31
0.0
  0
LINE
  5
6F9
  8
0
 39
6.2173588649999987
 10
119.03179284782431
 20
79.198951862190725
 30
0.0
 11
118.7301265956945
 21
79.45349053412383
 31
0.0
  0
LINE
  5
6FA
  8
0
 39
6.2173588649999987
 10
118.7301265956945
 20
79.45349053412383
 30
0.0
 11
118.6323453925705
 21
79.52673102155353
 31
0.0
  0
ENDSEC
  0
EOF
