  0
SECTION
  2
HEADER
  9
$ACADVER
  1
AC1009
  9
$INSBASE
 10
0.0
 20
0.0
 30
0.0
  9
$EXTMIN
 10
88.234691496957552
 20
43.855189623292013
 30
0.0
  9
$EXTMAX
 10
142.3423643330905
 20
109.2897199002327
 30
5.0
  9
$LIMMIN
 10
0.0
 20
0.0
  9
$LIMMAX
 10
420.0
 20
297.0
  9
$ORTHOMODE
 70
     0
  9
$REGENMODE
 70
     1
  9
$FILLMODE
 70
     1
  9
$QTEXTMODE
 70
     0
  9
$MIRRTEXT
 70
     1
  9
$DRAGMODE
 70
     2
  9
$LTSCALE
 40
0.3
  9
$OSMODE
 70
    37
  9
$ATTMODE
 70
     1
  9
$TEXTSIZE
 40
2.5
  9
$TRACEWID
 40
1.0
  9
$TEXTSTYLE
  7
STANDARD
  9
$CLAYER
  8
2
  9
$CELTYPE
  6
BYLAYER
  9
$CECOLOR
 62
   256
  9
$DIMSCALE
 40
1.0
  9
$DIMASZ
 40
2.5
  9
$DIMEXO
 40
0.625
  9
$DIMDLI
 40
3.75
  9
$DIMRND
 40
0.0
  9
$DIMDLE
 40
0.0
  9
$DIMEXE
 40
1.25
  9
$DIMTP
 40
0.0
  9
$DIMTM
 40
0.0
  9
$DIMTXT
 40
2.5
  9
$DIMCEN
 40
2.5
  9
$DIMTSZ
 40
0.0
  9
$DIMTOL
 70
     0
  9
$DIMLIM
 70
     0
  9
$DIMTIH
 70
     0
  9
$DIMTOH
 70
     0
  9
$DIMSE1
 70
     0
  9
$DIMSE2
 70
     0
  9
$DIMTAD
 70
     1
  9
$DIMZIN
 70
     8
  9
$DIMBLK
  1

  9
$DIMASO
 70
     1
  9
$DIMSHO
 70
     1
  9
$DIMPOST
  1

  9
$DIMAPOST
  1

  9
$DIMALT
 70
     0
  9
$DIMALTD
 70
     3
  9
$DIMALTF
 40
0.03937007874016
  9
$DIMLFAC
 40
1.0
  9
$DIMTOFL
 70
     1
  9
$DIMTVP
 40
0.0
  9
$DIMTIX
 70
     0
  9
$DIMSOXD
 70
     0
  9
$DIMSAH
 70
     0
  9
$DIMBLK1
  1

  9
$DIMBLK2
  1

  9
$DIMSTYLE
  2
ISO-25
  9
$DIMCLRD
 70
     0
  9
$DIMCLRE
 70
     0
  9
$DIMCLRT
 70
     0
  9
$DIMTFAC
 40
1.0
  9
$DIMGAP
 40
0.625
  9
$LUNITS
 70
     2
  9
$LUPREC
 70
     4
  9
$SKETCHINC
 40
1.0
  9
$FILLETRAD
 40
10.0
  9
$AUNITS
 70
     0
  9
$AUPREC
 70
     0
  9
$MENU
  1
.
  9
$ELEVATION
 40
0.0
  9
$PELEVATION
 40
0.0
  9
$THICKNESS
 40
0.0
  9
$LIMCHECK
 70
     0
  9
$BLIPMODE
 70
     0
  9
$CHAMFERA
 40
10.0
  9
$CHAMFERB
 40
10.0
  9
$SKPOLY
 70
     0
  9
$TDCREATE
 40
2453439.5526446411
  9
$TDUPDATE
 40
2453551.911366018
  9
$TDINDWG
 40
0.0307275231
  9
$TDUSRTIMER
 40
0.0307274074
  9
$USRTIMER
 70
     1
  9
$ANGBASE
 50
0.0
  9
$ANGDIR
 70
     0
  9
$PDMODE
 70
     0
  9
$PDSIZE
 40
0.0
  9
$PLINEWID
 40
0.0
  9
$COORDS
 70
     1
  9
$SPLFRAME
 70
     0
  9
$SPLINETYPE
 70
     6
  9
$SPLINESEGS
 70
     8
  9
$ATTDIA
 70
     0
  9
$ATTREQ
 70
     1
  9
$HANDLING
 70
-16383
  9
$HANDSEED
  5
5DF
  9
$SURFTAB1
 70
     6
  9
$SURFTAB2
 70
     6
  9
$SURFTYPE
 70
     6
  9
$SURFU
 70
     6
  9
$SURFV
 70
     6
  9
$UCSNAME
  2

  9
$UCSORG
 10
0.0
 20
0.0
 30
0.0
  9
$UCSXDIR
 10
1.0
 20
0.0
 30
0.0
  9
$UCSYDIR
 10
0.0
 20
1.0
 30
0.0
  9
$PUCSNAME
  2

  9
$PUCSORG
 10
0.0
 20
0.0
 30
0.0
  9
$PUCSXDIR
 10
1.0
 20
0.0
 30
0.0
  9
$PUCSYDIR
 10
0.0
 20
1.0
 30
0.0
  9
$USERI1
 70
     0
  9
$USERI2
 70
     0
  9
$USERI3
 70
     0
  9
$USERI4
 70
     0
  9
$USERI5
 70
     0
  9
$USERR1
 40
0.0
  9
$USERR2
 40
0.0
  9
$USERR3
 40
0.0
  9
$USERR4
 40
0.0
  9
$USERR5
 40
0.0
  9
$WORLDVIEW
 70
     1
  9
$SHADEDGE
 70
     3
  9
$SHADEDIF
 70
    70
  9
$TILEMODE
 70
     1
  9
$MAXACTVP
 70
    64
  9
$PLIMCHECK
 70
     0
  9
$PEXTMIN
 10
1.0000000000000000E+020
 20
1.0000000000000000E+020
 30
1.0000000000000000E+020
  9
$PEXTMAX
 10
-1.0000000000000000E+020
 20
-1.0000000000000000E+020
 30
-1.0000000000000000E+020
  9
$PLIMMIN
 10
0.0
 20
0.0
  9
$PLIMMAX
 10
420.0
 20
297.0
  9
$UNITMODE
 70
     0
  9
$VISRETAIN
 70
     1
  9
$PLINEGEN
 70
     0
  9
$PSLTSCALE
 70
     1
  0
ENDSEC
  0
SECTION
  2
TABLES
  0
TABLE
  2
VPORT
 70
     2
  0
VPORT
  2
*ACTIVE
 70
     0
 10
0.0
 20
0.0
 11
1.0
 21
1.0
 12
132.2307656024675
 22
72.824523661634586
 13
0.0
 23
0.0
 14
10.0
 24
10.0
 15
10.0
 25
10.0
 16
0.0
 26
0.0
 36
1.0
 17
0.0
 27
0.0
 37
0.0
 40
82.318487889627846
 41
2.5392405063291141
 42
50.0
 43
0.0
 44
0.0
 50
0.0
 51
0.0
 71
     0
 72
   100
 73
     1
 74
     3
 75
     0
 76
     0
 77
     0
 78
     0
  0
ENDTAB
  0
TABLE
  2
LTYPE
 70
     2
  0
LTYPE
  2
CONTINUOUS
 70
     0
  3
Solid line
 72
    65
 73
     0
 40
0.0
  0
LTYPE
  2
CENTER
 70
     0
  3
Center ____ _ ____ _ ____ _ ____ _ ____ _ ____
 72
    65
 73
     4
 40
50.799999999999997
 49
31.75
 49
-6.3499999999999988
 49
6.3499999999999988
 49
-6.3499999999999988
  0
ENDTAB
  0
TABLE
  2
LAYER
 70
     4
  0
LAYER
  2
0
 70
     0
 62
     7
  6
CONTINUOUS
  0
LAYER
  2
1
 70
     0
 62
     7
  6
CENTER
  0
LAYER
  2
2
 70
     0
 62
     7
  6
CONTINUOUS
  0
LAYER
  2
DEFPOINTS
 70
     0
 62
     7
  6
CONTINUOUS
  0
ENDTAB
  0
TABLE
  2
STYLE
 70
     3
  0
STYLE
  2
STANDARD
 70
     0
 40
0.0
 41
1.0
 50
0.0
 71
     0
 42
2.5
  3
txt
  4

  0
STYLE
  2
\U+00C9L\U+00C9R_\U+00C2S\U+00C2V\U+00C2B\U+00C2N
 70
     0
 40
1.0
 41
1.0
 50
0.0
 71
     0
 42
1.0
  3
\U+00E9l\U+00E9r \U+00E2S\U+00E2V\U+00E2b\U+00E2N
  4

  0
STYLE
  2

 70
     1
 40
0.0
 41
1.0
 50
0.0
 71
     0
 42
2.5
  3
ltypeshp.shx
  4

  0
ENDTAB
  0
TABLE
  2
VIEW
 70
     0
  0
ENDTAB
  0
TABLE
  2
UCS
 70
     0
  0
ENDTAB
  0
TABLE
  2
APPID
 70
     1
  0
APPID
  2
ACAD
 70
     0
  0
ENDTAB
  0
TABLE
  2
DIMSTYLE
 70
     2
  0
DIMSTYLE
  2
ISO-25
 70
     0
  3

  4

  5

  6

  7

 40
1.0
 41
2.5
 42
0.625
 43
3.75
 44
1.25
 45
0.0
 46
0.0
 47
0.0
 48
0.0
140
2.5
141
2.5
142
0.0
143
0.03937007874016
144
1.0
145
0.0
146
1.0
147
0.625
 71
     0
 72
     0
 73
     0
 74
     0
 75
     0
 76
     0
 77
     1
 78
     8
170
     0
171
     3
172
     1
173
     0
174
     0
175
     0
176
     0
177
     0
178
     0
  0
DIMSTYLE
  2
STANDARD
 70
     0
  3

  4

  5

  6

  7

 40
1.0
 41
0.18
 42
0.0625
 43
0.38
 44
0.18
 45
0.0
 46
0.0
 47
0.0
 48
0.0
140
0.18
141
0.09
142
0.0
143
25.399999999999999
144
1.0
145
0.0
146
1.0
147
0.09
 71
     0
 72
     0
 73
     1
 74
     1
 75
     0
 76
     0
 77
     0
 78
     0
170
     0
171
     2
172
     0
173
     0
174
     0
175
     0
176
     0
177
     0
178
     0
  0
ENDTAB
  0
ENDSEC
  0
SECTION
  2
BLOCKS
  0
BLOCK
  8
0
  2
$MODEL_SPACE
 70
     0
 10
0.0
 20
0.0
 30
0.0
  3
$MODEL_SPACE
  1

  0
ENDBLK
  5
21
  8
0
  0
BLOCK
 67
     1
  8
0
  2
$PAPER_SPACE
 70
     0
 10
0.0
 20
0.0
 30
0.0
  3
$PAPER_SPACE
  1

  0
ENDBLK
  5
1D
 67
     1
  8
0
  0
BLOCK
  8
0
  2
*D1
 70
     1
 10
0.0
 20
0.0
 30
0.0
  3
*D1
  1

  0
LINE
  5
557
  8
2
 62
     0
 10
108.42858605729469
 20
90.922306120319377
 30
0.0
 11
108.42858605729469
 21
98.644784167962484
 31
0.0
  0
LINE
  5
558
  8
2
 62
     0
 10
113.42858605729469
 20
90.922306120319377
 30
0.0
 11
113.42858605729469
 21
98.644784167962484
 31
0.0
  0
LINE
  5
559
  8
2
 62
     0
 10
105.92858605729469
 20
97.394784167962484
 30
0.0
 11
103.42858605729469
 21
97.394784167962484
 31
0.0
  0
LINE
  5
55A
  8
2
 62
     0
 10
115.92858605729469
 20
97.394784167962484
 30
0.0
 11
123.84525272396139
 21
97.394784167962484
 31
0.0
  0
LINE
  5
55B
  8
2
 62
     0
 10
108.42858605729469
 20
97.394784167962484
 30
0.0
 11
113.42858605729469
 21
97.394784167962484
 31
0.0
  0
SOLID
  5
55C
  8
2
 62
     0
 10
105.92858605729469
 20
97.81145083462917
 30
0.0
 11
105.92858605729469
 21
96.978117501295813
 31
0.0
 12
108.42858605729469
 22
97.394784167962484
 32
0.0
 13
108.42858605729469
 23
97.394784167962484
 33
0.0
  0
SOLID
  5
55D
  8
2
 62
     0
 10
115.92858605729469
 20
97.81145083462917
 30
0.0
 11
115.92858605729469
 21
96.978117501295813
 31
0.0
 12
113.42858605729469
 22
97.394784167962484
 32
0.0
 13
113.42858605729469
 23
97.394784167962484
 33
0.0
  0
INSERT
  5
55E
  8
2
  2
*U12
 10
0.0
 20
0.0
 30
0.0
  0
POINT
  5
55F
  8
DEFPOINTS
 62
     0
 10
108.42858605729469
 20
90.297306120319377
 30
0.0
  0
POINT
  5
560
  8
DEFPOINTS
 62
     0
 10
113.42858605729469
 20
90.297306120319377
 30
0.0
  0
POINT
  5
561
  8
DEFPOINTS
 62
     0
 10
113.42858605729469
 20
97.394784167962484
 30
0.0
  0
ENDBLK
  5
4BC
  8
0
  0
BLOCK
  8
0
  2
*D2
 70
     1
 10
0.0
 20
0.0
 30
0.0
  3
*D2
  1

  0
LINE
  5
54E
  8
2
 62
     0
 10
105.42858605729469
 20
86.422306120319377
 30
0.0
 11
105.42858605729469
 21
103.4655921551232
 31
0.0
  0
LINE
  5
54F
  8
2
 62
     0
 10
116.42858605729469
 20
86.422306120319377
 30
0.0
 11
116.42858605729469
 21
103.4655921551232
 31
0.0
  0
LINE
  5
550
  8
2
 62
     0
 10
107.92858605729469
 20
102.2155921551232
 30
0.0
 11
113.92858605729469
 21
102.2155921551232
 31
0.0
  0
SOLID
  5
551
  8
2
 62
     0
 10
107.92858605729469
 20
102.6322588217898
 30
0.0
 11
107.92858605729469
 21
101.7989254884565
 31
0.0
 12
105.42858605729469
 22
102.2155921551232
 32
0.0
 13
105.42858605729469
 23
102.2155921551232
 33
0.0
  0
SOLID
  5
552
  8
2
 62
     0
 10
113.92858605729469
 20
102.6322588217898
 30
0.0
 11
113.92858605729469
 21
101.7989254884565
 31
0.0
 12
116.42858605729469
 22
102.2155921551232
 32
0.0
 13
116.42858605729469
 23
102.2155921551232
 33
0.0
  0
INSERT
  5
553
  8
2
  2
*U11
 10
0.0
 20
0.0
 30
0.0
  0
POINT
  5
554
  8
DEFPOINTS
 62
     0
 10
105.42858605729469
 20
85.797306120319377
 30
0.0
  0
POINT
  5
555
  8
DEFPOINTS
 62
     0
 10
116.42858605729469
 20
85.797306120319377
 30
0.0
  0
POINT
  5
556
  8
DEFPOINTS
 62
     0
 10
116.42858605729469
 20
102.2155921551232
 30
0.0
  0
ENDBLK
  5
4E6
  8
0
  0
BLOCK
  8
0
  2
*D3
 70
     1
 10
0.0
 20
0.0
 30
0.0
  3
*D3
  1

  0
LINE
  5
545
  8
2
 62
     0
 10
103.42858605729469
 20
89.803954741199817
 30
0.0
 11
103.42858605729469
 21
107.4147199002327
 31
0.0
  0
LINE
  5
546
  8
2
 62
     0
 10
118.42858605729469
 20
89.803954741199817
 30
0.0
 11
118.42858605729469
 21
107.4147199002327
 31
0.0
  0
LINE
  5
547
  8
2
 62
     0
 10
105.92858605729469
 20
106.1647199002327
 30
0.0
 11
115.92858605729469
 21
106.1647199002327
 31
0.0
  0
SOLID
  5
548
  8
2
 62
     0
 10
105.92858605729469
 20
106.5813865668994
 30
0.0
 11
105.92858605729469
 21
105.7480532335661
 31
0.0
 12
103.42858605729469
 22
106.1647199002327
 32
0.0
 13
103.42858605729469
 23
106.1647199002327
 33
0.0
  0
SOLID
  5
549
  8
2
 62
     0
 10
115.92858605729469
 20
106.5813865668994
 30
0.0
 11
115.92858605729469
 21
105.7480532335661
 31
0.0
 12
118.42858605729469
 22
106.1647199002327
 32
0.0
 13
118.42858605729469
 23
106.1647199002327
 33
0.0
  0
INSERT
  5
54A
  8
2
  2
*U10
 10
0.0
 20
0.0
 30
0.0
  0
POINT
  5
54B
  8
DEFPOINTS
 62
     0
 10
103.42858605729469
 20
89.178954741199817
 30
0.0
  0
POINT
  5
54C
  8
DEFPOINTS
 62
     0
 10
118.42858605729469
 20
89.178954741199817
 30
0.0
  0
POINT
  5
54D
  8
DEFPOINTS
 62
     0
 10
118.42858605729469
 20
106.1647199002327
 30
0.0
  0
ENDBLK
  5
4F3
  8
0
  0
BLOCK
  8
0
  2
*D4
 70
     1
 10
0.0
 20
0.0
 30
0.0
  3
*D4
  1

  0
LINE
  5
4F6
  8
2
 62
     0
 10
117.05358605729469
 20
90.297306120319377
 30
0.0
 11
136.05327566122111
 21
90.297306120319377
 31
0.0
  0
LINE
  5
4F7
  8
2
 62
     0
 10
117.05358605729469
 20
85.797306120319377
 30
0.0
 11
136.05327566122111
 21
85.797306120319377
 31
0.0
  0
LINE
  5
4F8
  8
2
 62
     0
 10
134.80327566122111
 20
92.797306120319377
 30
0.0
 11
134.80327566122111
 21
95.297306120319377
 31
0.0
  0
LINE
  5
4F9
  8
2
 62
     0
 10
134.80327566122111
 20
83.297306120319377
 30
0.0
 11
134.80327566122111
 21
74.547306120319377
 31
0.0
  0
LINE
  5
4FA
  8
2
 62
     0
 10
134.80327566122111
 20
90.297306120319377
 30
0.0
 11
134.80327566122111
 21
85.797306120319377
 31
0.0
  0
SOLID
  5
4FB
  8
2
 62
     0
 10
134.38660899455451
 20
92.797306120319377
 30
0.0
 11
135.21994232788779
 21
92.797306120319377
 31
0.0
 12
134.80327566122111
 22
90.297306120319377
 32
0.0
 13
134.80327566122111
 23
90.297306120319377
 33
0.0
  0
SOLID
  5
4FC
  8
2
 62
     0
 10
134.38660899455451
 20
83.297306120319377
 30
0.0
 11
135.21994232788779
 21
83.297306120319377
 31
0.0
 12
134.80327566122111
 22
85.797306120319377
 32
0.0
 13
134.80327566122111
 23
85.797306120319377
 33
0.0
  0
TEXT
  5
4FD
  8
2
 62
     0
 10
134.17827566122111
 20
75.172306120319391
 30
0.0
 40
2.5
  1
4.5
 50
90.0
  0
POINT
  5
4FE
  8
DEFPOINTS
 62
     0
 10
116.42858605729469
 20
90.297306120319377
 30
0.0
  0
POINT
  5
4FF
  8
DEFPOINTS
 62
     0
 10
116.42858605729479
 20
85.797306120319377
 30
0.0
  0
POINT
  5
500
  8
DEFPOINTS
 62
     0
 10
134.80327566122111
 20
85.797306120319377
 30
0.0
  0
ENDBLK
  5
502
  8
0
  0
BLOCK
  8
0
  2
*D5
 70
     1
 10
0.0
 20
0.0
 30
0.0
  3
*D5
  1

  0
LINE
  5
505
  8
2
 62
     0
 10
117.05358605729469
 20
90.297306120319377
 30
0.0
 11
142.3423643330905
 21
90.297306120319377
 31
0.0
  0
LINE
  5
506
  8
2
 62
     0
 10
121.55358605729469
 20
70.797306120319377
 30
0.0
 11
142.3423643330905
 21
70.797306120319377
 31
0.0
  0
LINE
  5
507
  8
2
 62
     0
 10
141.0923643330905
 20
87.797306120319377
 30
0.0
 11
141.0923643330905
 21
73.297306120319377
 31
0.0
  0
SOLID
  5
508
  8
2
 62
     0
 10
140.6756976664239
 20
87.797306120319377
 30
0.0
 11
141.50903099975719
 21
87.797306120319377
 31
0.0
 12
141.0923643330905
 22
90.297306120319377
 32
0.0
 13
141.0923643330905
 23
90.297306120319377
 33
0.0
  0
SOLID
  5
509
  8
2
 62
     0
 10
140.6756976664239
 20
73.297306120319377
 30
0.0
 11
141.50903099975719
 21
73.297306120319377
 31
0.0
 12
141.0923643330905
 22
70.797306120319377
 32
0.0
 13
141.0923643330905
 23
70.797306120319377
 33
0.0
  0
TEXT
  5
50A
  8
2
 62
     0
 10
140.4673643330905
 20
77.213972786986062
 30
0.0
 40
2.5
  1
19.5
 50
90.0
  0
POINT
  5
50B
  8
DEFPOINTS
 62
     0
 10
116.42858605729469
 20
90.297306120319377
 30
0.0
  0
POINT
  5
50C
  8
DEFPOINTS
 62
     0
 10
120.92858605729469
 20
70.797306120319377
 30
0.0
  0
POINT
  5
50D
  8
DEFPOINTS
 62
     0
 10
141.0923643330905
 20
70.797306120319377
 30
0.0
  0
ENDBLK
  5
50F
  8
0
  0
BLOCK
  8
0
  2
*D6
 70
     1
 10
0.0
 20
0.0
 30
0.0
  3
*D6
  1

  0
LINE
  5
512
  8
2
 62
     0
 10
100.30358605729469
 20
70.797306120319377
 30
0.0
 11
90.109691496957566
 21
70.797306120319391
 31
0.0
  0
LINE
  5
513
  8
2
 62
     0
 10
104.80358605729469
 20
82.797306120319377
 30
0.0
 11
90.109691496957566
 21
82.797306120319377
 31
0.0
  0
LINE
  5
514
  8
2
 62
     0
 10
91.359691496957566
 20
73.297306120319391
 30
0.0
 11
91.359691496957566
 21
80.297306120319377
 31
0.0
  0
SOLID
  5
515
  8
2
 62
     0
 10
90.943024830290895
 20
73.297306120319391
 30
0.0
 11
91.776358163624224
 21
73.297306120319391
 31
0.0
 12
91.359691496957566
 22
70.797306120319391
 32
0.0
 13
91.359691496957566
 23
70.797306120319391
 33
0.0
  0
SOLID
  5
516
  8
2
 62
     0
 10
90.943024830290895
 20
80.297306120319377
 30
0.0
 11
91.776358163624224
 21
80.297306120319377
 31
0.0
 12
91.359691496957566
 22
82.797306120319377
 32
0.0
 13
91.359691496957566
 23
82.797306120319377
 33
0.0
  0
TEXT
  5
517
  8
2
 62
     0
 10
90.734691496957552
 20
75.130639453652734
 30
0.0
 40
2.5
  1
12
 50
90.0
  0
POINT
  5
518
  8
DEFPOINTS
 62
     0
 10
100.92858605729469
 20
70.797306120319377
 30
0.0
  0
POINT
  5
519
  8
DEFPOINTS
 62
     0
 10
105.42858605729469
 20
82.797306120319377
 30
0.0
  0
POINT
  5
51A
  8
DEFPOINTS
 62
     0
 10
91.359691496957566
 20
82.797306120319377
 30
0.0
  0
ENDBLK
  5
51C
  8
0
  0
BLOCK
  8
0
  2
*D7
 70
     1
 10
0.0
 20
0.0
 30
0.0
  3
*D7
  1

  0
LINE
  5
562
  8
2
 62
     0
 10
105.42858605729469
 20
72.148406120319379
 30
0.0
 11
105.42858605729469
 21
62.57209118382616
 31
0.0
  0
LINE
  5
563
  8
2
 62
     0
 10
116.42858605729469
 20
72.148406120319379
 30
0.0
 11
116.42858605729469
 21
62.57209118382616
 31
0.0
  0
LINE
  5
564
  8
2
 62
     0
 10
107.92858605729469
 20
63.82209118382616
 30
0.0
 11
113.92858605729469
 21
63.82209118382616
 31
0.0
  0
SOLID
  5
565
  8
2
 62
     0
 10
107.92858605729469
 20
64.238757850492831
 30
0.0
 11
107.92858605729469
 21
63.405424517159503
 31
0.0
 12
105.42858605729469
 22
63.82209118382616
 32
0.0
 13
105.42858605729469
 23
63.82209118382616
 33
0.0
  0
SOLID
  5
566
  8
2
 62
     0
 10
113.92858605729469
 20
64.238757850492831
 30
0.0
 11
113.92858605729469
 21
63.405424517159503
 31
0.0
 12
116.42858605729469
 22
63.82209118382616
 32
0.0
 13
116.42858605729469
 23
63.82209118382616
 33
0.0
  0
INSERT
  5
567
  8
2
  2
*U13
 10
0.0
 20
0.0
 30
0.0
  0
POINT
  5
568
  8
DEFPOINTS
 62
     0
 10
105.42858605729469
 20
72.773406120319379
 30
0.0
  0
POINT
  5
569
  8
DEFPOINTS
 62
     0
 10
116.42858605729469
 20
72.773406120319379
 30
0.0
  0
POINT
  5
56A
  8
DEFPOINTS
 62
     0
 10
116.42858605729469
 20
63.82209118382616
 30
0.0
  0
ENDBLK
  5
52A
  8
0
  0
BLOCK
  8
0
  2
*D8
 70
     1
 10
0.0
 20
0.0
 30
0.0
  3
*D8
  1

  0
LINE
  5
586
  8
2
 62
     0
 10
100.92858605729469
 20
70.172306120319377
 30
0.0
 11
100.92858605729469
 21
57.89514637581248
 31
0.0
  0
LINE
  5
587
  8
2
 62
     0
 10
120.92858605729469
 20
70.172306120319377
 30
0.0
 11
120.92858605729469
 21
57.89514637581248
 31
0.0
  0
LINE
  5
588
  8
2
 62
     0
 10
103.42858605729469
 20
59.14514637581248
 30
0.0
 11
118.42858605729469
 21
59.14514637581248
 31
0.0
  0
SOLID
  5
589
  8
2
 62
     0
 10
103.42858605729469
 20
59.561813042479152
 30
0.0
 11
103.42858605729469
 21
58.728479709145823
 31
0.0
 12
100.92858605729469
 22
59.14514637581248
 32
0.0
 13
100.92858605729469
 23
59.14514637581248
 33
0.0
  0
SOLID
  5
58A
  8
2
 62
     0
 10
118.42858605729469
 20
59.561813042479152
 30
0.0
 11
118.42858605729469
 21
58.728479709145823
 31
0.0
 12
120.92858605729469
 22
59.14514637581248
 32
0.0
 13
120.92858605729469
 23
59.14514637581248
 33
0.0
  0
INSERT
  5
58B
  8
2
  2
*U14
 10
0.0
 20
0.0
 30
0.0
  0
POINT
  5
58C
  8
DEFPOINTS
 62
     0
 10
100.92858605729469
 20
70.797306120319377
 30
0.0
  0
POINT
  5
58D
  8
DEFPOINTS
 62
     0
 10
120.92858605729469
 20
70.797306120319377
 30
0.0
  0
POINT
  5
58E
  8
DEFPOINTS
 62
     0
 10
120.92858605729469
 20
59.14514637581248
 30
0.0
  0
ENDBLK
  5
537
  8
0
  0
BLOCK
  8
0
  2
*D9
 70
     1
 10
0.0
 20
0.0
 30
0.0
  3
*D9
  1

  0
LINE
  5
599
  8
2
 62
     0
 10
98.928586057294751
 20
77.05316048774182
 30
0.0
 11
98.928586057294751
 21
52.549545457398487
 31
0.0
  0
LINE
  5
59A
  8
2
 62
     0
 10
122.92858605729469
 20
77.05316048774182
 30
0.0
 11
122.92858605729469
 21
52.549545457398487
 31
0.0
  0
LINE
  5
59B
  8
2
 62
     0
 10
101.42858605729469
 20
53.799545457398487
 30
0.0
 11
120.42858605729469
 21
53.799545457398487
 31
0.0
  0
SOLID
  5
59C
  8
2
 62
     0
 10
101.42858605729469
 20
54.216212124065159
 30
0.0
 11
101.42858605729469
 21
53.38287879073183
 31
0.0
 12
98.928586057294751
 22
53.799545457398487
 32
0.0
 13
98.928586057294751
 23
53.799545457398487
 33
0.0
  0
SOLID
  5
59D
  8
2
 62
     0
 10
120.42858605729469
 20
54.216212124065159
 30
0.0
 11
120.42858605729469
 21
53.38287879073183
 31
0.0
 12
122.92858605729469
 22
53.799545457398487
 32
0.0
 13
122.92858605729469
 23
53.799545457398487
 33
0.0
  0
INSERT
  5
59E
  8
2
  2
*U15
 10
0.0
 20
0.0
 30
0.0
  0
POINT
  5
59F
  8
DEFPOINTS
 62
     0
 10
98.928586057294751
 20
77.67816048774182
 30
0.0
  0
POINT
  5
5A0
  8
DEFPOINTS
 62
     0
 10
122.92858605729469
 20
77.67816048774182
 30
0.0
  0
POINT
  5
5A1
  8
DEFPOINTS
 62
     0
 10
122.92858605729469
 20
53.799545457398487
 30
0.0
  0
ENDBLK
  5
544
  8
0
  0
BLOCK
  8
0
  2
*U10
 70
     1
 10
0.0
 20
0.0
 30
0.0
  3
*U10
  1

  0
TEXT
  5
5C2
  8
2
 62
     0
 10
108.01191939062799
 20
106.7897199002328
 30
0.0
 40
2.5
  1
\U+2205
  0
TEXT
  5
5C3
  8
2
 62
     0
 10
110.51191939062799
 20
106.7897199002328
 30
0.0
 40
2.5
  1
15
  0
ENDBLK
  5
5C5
  8
0
  0
BLOCK
  8
0
  2
*U11
 70
     1
 10
0.0
 20
0.0
 30
0.0
  3
*U11
  1

  0
TEXT
  5
5C7
  8
2
 62
     0
 10
108.42858605729469
 20
102.8405921551232
 30
0.0
 40
2.5
  1
\U+2205
  0
TEXT
  5
5C8
  8
2
 62
     0
 10
110.92858605729469
 20
102.8405921551232
 30
0.0
 40
2.5
  1
11
  0
ENDBLK
  5
5CA
  8
0
  0
BLOCK
  8
0
  2
*U12
 70
     1
 10
0.0
 20
0.0
 30
0.0
  3
*U12
  1

  0
TEXT
  5
5CC
  8
2
 62
     0
 10
119.05358605729469
 20
98.019784167962484
 30
0.0
 40
2.5
  1
\U+2205
  0
TEXT
  5
5CD
  8
2
 62
     0
 10
121.55358605729469
 20
98.019784167962484
 30
0.0
 40
2.5
  1
5
  0
ENDBLK
  5
5CF
  8
0
  0
BLOCK
  8
0
  2
*U13
 70
     1
 10
0.0
 20
0.0
 30
0.0
  3
*U13
  1

  0
TEXT
  5
5D1
  8
2
 62
     0
 10
108.42858605729469
 20
64.44709118382616
 30
0.0
 40
2.5
  1
\U+2205
  0
TEXT
  5
5D2
  8
2
 62
     0
 10
110.92858605729469
 20
64.44709118382616
 30
0.0
 40
2.5
  1
11
  0
ENDBLK
  5
5D4
  8
0
  0
BLOCK
  8
0
  2
*U14
 70
     1
 10
0.0
 20
0.0
 30
0.0
  3
*U14
  1

  0
TEXT
  5
5D6
  8
2
 62
     0
 10
107.80358605729469
 20
59.77014637581248
 30
0.0
 40
2.5
  1
\U+2205
  0
TEXT
  5
5D7
  8
2
 62
     0
 10
110.30358605729469
 20
59.77014637581248
 30
0.0
 40
2.5
  1
20
  0
ENDBLK
  5
5D9
  8
0
  0
BLOCK
  8
0
  2
*U15
 70
     1
 10
0.0
 20
0.0
 30
0.0
  3
*U15
  1

  0
TEXT
  5
5DB
  8
2
 62
     0
 10
107.59525272396139
 20
54.424545457398487
 30
0.0
 40
2.5
  1
\U+2205
  0
TEXT
  5
5DC
  8
2
 62
     0
 10
110.09525272396139
 20
54.424545457398487
 30
0.0
 40
2.5
  1
24
  0
ENDBLK
  5
5DE
  8
0
  0
ENDSEC
  0
SECTION
  2
ENTITIES
  0
POLYLINE
  5
11D
  8
0
 66
     1
 10
0.0
 20
0.0
 30
0.0
 39
5.0
  0
VERTEX
  5
5B5
  8
0
 10
105.42858605729469
 20
72.773406120319379
 30
0.0
  0
VERTEX
  5
5B6
  8
0
 10
110.92858605729469
 20
72.773406120319379
 30
0.0
  0
SEQEND
  5
5B7
  8
0
  0
POLYLINE
  5
11E
  8
0
 66
     1
 10
0.0
 20
0.0
 30
0.0
 39
5.0
  0
VERTEX
  5
5B8
  8
0
 10
100.2991860572947
 20
78.243206120319371
 30
0.0
  0
VERTEX
  5
5B9
  8
0
 10
110.92858605729469
 20
78.243206120319371
 30
0.0
  0
SEQEND
  5
5BA
  8
0
  0
TEXT
  5
1B5
  8
2
 10
92.199959780519734
 20
44.097089051863463
 30
0.0
 40
2.5399440000000002
  1
No. 23.020.124._
 51
-0.0000015352344868
  7
\U+00C9L\U+00C9R_\U+00C2S\U+00C2V\U+00C2B\U+00C2N
  0
LINE
  5
1DA
  8
0
 10
108.88268605729471
 20
83.942706120319357
 30
0.0
 11
105.42858605729469
 21
83.942706120319386
 31
0.0
  0
LINE
  5
1E0
  8
0
 39
5.0
 10
108.5042202751132
 20
82.797306120319377
 30
0.0
 11
108.88268605729471
 21
83.942706120319357
 31
0.0
  0
LINE
  5
1E4
  8
0
 39
5.0
 10
104.7271293156585
 20
82.797306120319377
 30
0.0
 11
100.7913860572947
 21
79.231206120319371
 31
0.0
  0
LINE
  5
1E5
  8
0
 39
5.0
 10
100.7913860572947
 20
79.231206120319371
 30
0.0
 11
100.7913860572947
 21
79.231206120319371
 31
0.0
  0
LINE
  5
1E6
  8
0
 39
5.0
 10
100.7913860572947
 20
79.231206120319371
 30
0.0
 11
100.6761860572947
 21
79.103306120319374
 31
0.0
  0
LINE
  5
1E7
  8
0
 39
5.0
 10
100.6761860572947
 20
79.103306120319374
 30
0.0
 11
100.5763860572947
 21
78.983406120319373
 31
0.0
  0
LINE
  5
1E8
  8
0
 39
5.0
 10
100.5763860572947
 20
78.983406120319373
 30
0.0
 11
100.49238605729469
 21
78.869706120319364
 31
0.0
  0
LINE
  5
1E9
  8
0
 39
5.0
 10
100.49238605729469
 20
78.869706120319364
 30
0.0
 11
100.42388605729469
 21
78.761206120319372
 31
0.0
  0
LINE
  5
1EA
  8
0
 39
5.0
 10
100.42388605729469
 20
78.761206120319372
 30
0.0
 11
100.3716860572947
 21
78.656006120319375
 31
0.0
  0
LINE
  5
1EB
  8
0
 39
5.0
 10
100.3716860572947
 20
78.656006120319375
 30
0.0
 11
100.3353860572947
 21
78.552906120319378
 31
0.0
  0
LINE
  5
1EC
  8
0
 39
5.0
 10
100.3353860572947
 20
78.552906120319378
 30
0.0
 11
100.3153860572947
 21
78.450306120319382
 31
0.0
  0
LINE
  5
1ED
  8
0
 39
5.0
 10
100.3153860572947
 20
78.450306120319382
 30
0.0
 11
100.3115860572947
 21
78.347006120319364
 31
0.0
  0
LINE
  5
1EE
  8
0
 39
5.0
 10
100.3115860572947
 20
78.347006120319364
 30
0.0
 11
100.3245860572947
 21
78.241206120319376
 31
0.0
  0
LINE
  5
1EF
  8
0
 39
5.0
 10
100.3245860572947
 20
78.241206120319376
 30
0.0
 11
100.3541860572947
 21
78.131706120319379
 31
0.0
  0
LINE
  5
1F0
  8
0
 39
5.0
 10
100.3541860572947
 20
78.131706120319379
 30
0.0
 11
100.40068605729471
 21
78.016906120319376
 31
0.0
  0
LINE
  5
1F1
  8
0
 39
5.0
 10
100.40068605729471
 20
78.016906120319376
 30
0.0
 11
100.4638860572947
 21
77.895606120319371
 31
0.0
  0
LINE
  5
1F2
  8
0
 39
5.0
 10
100.4638860572947
 20
77.895606120319371
 30
0.0
 11
100.5443860572947
 21
77.766006120319375
 31
0.0
  0
LINE
  5
1F3
  8
0
 39
5.0
 10
100.5443860572947
 20
77.766006120319375
 30
0.0
 11
100.6420860572947
 21
77.627006120319379
 31
0.0
  0
LINE
  5
1F4
  8
0
 39
5.0
 10
100.6420860572947
 20
77.627006120319379
 30
0.0
 11
100.75728605729471
 21
77.47690612031937
 31
0.0
  0
LINE
  5
1F5
  8
0
 39
5.0
 10
100.75728605729471
 20
77.47690612031937
 30
0.0
 11
100.8897860572947
 21
77.314506120319379
 31
0.0
  0
LINE
  5
1F6
  8
0
 39
5.0
 10
100.8897860572947
 20
77.314506120319379
 30
0.0
 11
105.0990860572947
 21
73.563906120319373
 31
0.0
  0
LINE
  5
1F7
  8
0
 39
5.0
 10
105.0990860572947
 20
73.563906120319373
 30
0.0
 11
105.0990860572947
 21
73.563906120319373
 31
0.0
  0
LINE
  5
1F8
  8
0
 39
5.0
 10
105.0990860572947
 20
73.563906120319373
 30
0.0
 11
105.1766860572947
 21
73.493306120319374
 31
0.0
  0
LINE
  5
1F9
  8
0
 39
5.0
 10
105.1766860572947
 20
73.493306120319374
 30
0.0
 11
105.2458860572947
 21
73.418706120319371
 31
0.0
  0
LINE
  5
1FA
  8
0
 39
5.0
 10
105.2458860572947
 20
73.418706120319371
 30
0.0
 11
105.3063860572947
 21
73.340706120319354
 31
0.0
  0
LINE
  5
1FB
  8
0
 39
5.0
 10
105.3063860572947
 20
73.340706120319354
 30
0.0
 11
105.3571860572947
 21
73.259806120319368
 31
0.0
  0
LINE
  5
1FC
  8
0
 39
5.0
 10
105.3571860572947
 20
73.259806120319368
 30
0.0
 11
105.3982860572947
 21
73.176506120319374
 31
0.0
  0
LINE
  5
1FD
  8
0
 39
5.0
 10
105.3982860572947
 20
73.176506120319374
 30
0.0
 11
105.42858605729469
 21
73.09150612031938
 31
0.0
  0
LINE
  5
202
  8
0
 39
5.0
 10
105.42858605729469
 20
72.734350351088594
 30
0.0
 11
105.40158605729469
 21
72.660706120319375
 31
0.0
  0
LINE
  5
203
  8
0
 39
5.0
 10
105.40158605729469
 20
72.660706120319375
 30
0.0
 11
105.3563860572947
 21
72.577606120319373
 31
0.0
  0
LINE
  5
204
  8
0
 39
5.0
 10
105.3563860572947
 20
72.577606120319373
 30
0.0
 11
105.29668605729471
 21
72.49660612031937
 31
0.0
  0
LINE
  5
205
  8
0
 39
5.0
 10
105.29668605729471
 20
72.49660612031937
 30
0.0
 11
105.2216860572947
 21
72.418706120319371
 31
0.0
  0
LINE
  5
206
  8
0
 39
5.0
 10
105.2216860572947
 20
72.418706120319371
 30
0.0
 11
105.13098605729471
 21
72.344106120319367
 31
0.0
  0
LINE
  5
207
  8
0
 39
5.0
 10
105.13098605729471
 20
72.344106120319367
 30
0.0
 11
105.0237860572947
 21
72.273706120319375
 31
0.0
  0
LINE
  5
208
  8
0
 39
5.0
 10
105.0237860572947
 20
72.273706120319375
 30
0.0
 11
101.8740860572947
 21
70.797306120319377
 31
0.0
  0
LINE
  5
209
  8
0
 39
5.0
 10
101.8740860572947
 20
70.797306120319377
 30
0.0
 11
110.92858605729469
 21
70.797306120319377
 31
0.0
  0
LINE
  5
20B
  8
0
 39
5.0
 10
110.92858605729469
 20
90.297306120319377
 30
0.0
 11
104.5170860572947
 21
90.297306120319377
 31
0.0
  0
LINE
  5
20C
  8
0
 39
5.0
 10
104.5170860572947
 20
90.297306120319377
 30
0.0
 11
103.42858605729469
 21
89.178954741199817
 31
0.0
  0
LINE
  5
20E
  8
0
 39
5.0
 10
103.42858605729469
 20
84.619397682141496
 30
0.0
 11
99.563786057294763
 21
79.145906120319381
 31
0.0
  0
LINE
  5
20F
  8
0
 39
5.0
 10
99.563786057294763
 20
79.145906120319381
 30
0.0
 11
98.928586057294751
 21
79.150160539647217
 31
0.0
  0
LINE
  5
211
  8
0
 39
5.0
 10
98.928586057294751
 20
77.67816048774182
 30
0.0
 11
103.8084860572947
 21
73.555006120319376
 31
0.0
  0
LINE
  5
212
  8
0
 39
5.0
 10
103.8084860572947
 20
73.555006120319376
 30
0.0
 11
103.8084860572947
 21
73.555006120319376
 31
0.0
  0
LINE
  5
213
  8
0
 39
5.0
 10
103.8084860572947
 20
73.555006120319376
 30
0.0
 11
103.8971860572947
 21
73.446206120319374
 31
0.0
  0
LINE
  5
214
  8
0
 39
5.0
 10
103.8971860572947
 20
73.446206120319374
 30
0.0
 11
103.9776860572947
 21
73.352506120319376
 31
0.0
  0
LINE
  5
215
  8
0
 39
5.0
 10
103.9776860572947
 20
73.352506120319376
 30
0.0
 11
104.0490860572947
 21
73.271706120319379
 31
0.0
  0
LINE
  5
216
  8
0
 39
5.0
 10
104.0490860572947
 20
73.271706120319379
 30
0.0
 11
104.10998605729471
 21
73.201906120319379
 31
0.0
  0
LINE
  5
217
  8
0
 39
5.0
 10
104.10998605729471
 20
73.201906120319379
 30
0.0
 11
104.1593860572947
 21
73.140906120319372
 31
0.0
  0
LINE
  5
218
  8
0
 39
5.0
 10
104.1593860572947
 20
73.140906120319372
 30
0.0
 11
104.19608605729471
 21
73.08690612031937
 31
0.0
  0
LINE
  5
219
  8
0
 39
5.0
 10
104.19608605729471
 20
73.08690612031937
 30
0.0
 11
104.2189860572947
 21
73.037606120319353
 31
0.0
  0
LINE
  5
21A
  8
0
 39
5.0
 10
104.2189860572947
 20
73.037606120319353
 30
0.0
 11
104.2267860572947
 21
72.991206120319376
 31
0.0
  0
LINE
  5
21B
  8
0
 39
5.0
 10
104.2267860572947
 20
72.991206120319376
 30
0.0
 11
104.2186860572947
 21
72.945406120319376
 31
0.0
  0
LINE
  5
21C
  8
0
 39
5.0
 10
104.2186860572947
 20
72.945406120319376
 30
0.0
 11
104.19308605729471
 21
72.898506120319368
 31
0.0
  0
LINE
  5
21D
  8
0
 39
5.0
 10
104.19308605729471
 20
72.898506120319368
 30
0.0
 11
104.1490860572947
 21
72.848206120319375
 31
0.0
  0
LINE
  5
21E
  8
0
 39
5.0
 10
104.1490860572947
 20
72.848206120319375
 30
0.0
 11
104.0853860572947
 21
72.79270612031938
 31
0.0
  0
LINE
  5
21F
  8
0
 39
5.0
 10
104.0853860572947
 20
72.79270612031938
 30
0.0
 11
104.0010860572947
 21
72.729706120319364
 31
0.0
  0
LINE
  5
220
  8
0
 39
5.0
 10
104.0010860572947
 20
72.729706120319364
 30
0.0
 11
103.8947860572947
 21
72.657606120319372
 31
0.0
  0
LINE
  5
221
  8
0
 39
5.0
 10
103.8947860572947
 20
72.657606120319372
 30
0.0
 11
103.76538605729471
 21
72.573906120319378
 31
0.0
  0
LINE
  5
222
  8
0
 39
5.0
 10
103.76538605729471
 20
72.573906120319378
 30
0.0
 11
103.6116860572947
 21
72.477006120319373
 31
0.0
  0
LINE
  5
223
  8
0
 39
5.0
 10
103.6116860572947
 20
72.477006120319373
 30
0.0
 11
100.92858605729469
 21
70.821879392226123
 31
0.0
  0
LINE
  5
3F7
  8
1
 10
110.92858605729469
 20
90.797306120319377
 30
0.0
 11
110.92858605729469
 21
70.297306120319377
 31
0.0
  0
LINE
  5
3FB
  8
0
 10
108.42858605729469
 20
90.297306120319377
 30
0.0
 11
108.42858605729469
 21
85.797306120319377
 31
0.0
  0
LINE
  5
3FD
  8
0
 10
103.42858605729469
 20
89.178954741199817
 30
0.0
 11
103.42858605729469
 21
84.619397682141496
 31
0.0
  0
LINE
  5
3FE
  8
0
 10
110.92858605729469
 20
85.797306120319377
 30
0.0
 11
105.42858605729469
 21
85.797306120319377
 31
0.0
  0
LINE
  5
404
  8
0
 10
110.92858605729469
 20
82.797306120319377
 30
0.0
 11
108.5042202751131
 21
82.797306120319377
 31
0.0
  0
LINE
  5
405
  8
0
 10
105.42858605729469
 20
82.797306120319377
 30
0.0
 11
104.7271293156585
 21
82.797306120319377
 31
0.0
  0
LINE
  5
408
  8
0
 10
100.92858605729469
 20
70.821879392226123
 30
0.0
 11
100.92858605729469
 21
70.797306120319377
 31
0.0
  0
LINE
  5
40A
  8
0
 10
98.928586057294751
 20
79.150160539647217
 30
0.0
 11
98.928586057294751
 21
77.67816048774182
 31
0.0
  0
LINE
  5
410
  8
0
 10
100.92858605729469
 20
70.797306120319377
 30
0.0
 11
110.92858605729469
 21
70.797306120319377
 31
0.0
  0
LINE
  5
428
  8
0
 10
105.42858605729469
 20
73.09150612031938
 30
0.0
 11
105.42858605729469
 21
72.734350351088565
 31
0.0
  0
LINE
  5
462
  8
0
 39
5.0
 10
118.2454860572947
 20
72.477006120319373
 30
0.0
 11
120.92858605729469
 21
70.821879392226123
 31
0.0
  0
LINE
  5
463
  8
0
 39
5.0
 10
118.0917860572947
 20
72.573906120319378
 30
0.0
 11
118.2454860572947
 21
72.477006120319373
 31
0.0
  0
LINE
  5
464
  8
0
 39
5.0
 10
117.96238605729469
 20
72.657606120319372
 30
0.0
 11
118.0917860572947
 21
72.573906120319378
 31
0.0
  0
LINE
  5
465
  8
0
 39
5.0
 10
117.8560860572947
 20
72.729706120319364
 30
0.0
 11
117.96238605729469
 21
72.657606120319372
 31
0.0
  0
LINE
  5
466
  8
0
 39
5.0
 10
117.7717860572947
 20
72.79270612031938
 30
0.0
 11
117.8560860572947
 21
72.729706120319364
 31
0.0
  0
LINE
  5
467
  8
0
 39
5.0
 10
117.70808605729469
 20
72.848206120319375
 30
0.0
 11
117.7717860572947
 21
72.79270612031938
 31
0.0
  0
LINE
  5
468
  8
0
 39
5.0
 10
117.6640860572947
 20
72.898506120319368
 30
0.0
 11
117.70808605729469
 21
72.848206120319375
 31
0.0
  0
LINE
  5
469
  8
0
 39
5.0
 10
117.6384860572947
 20
72.945406120319376
 30
0.0
 11
117.6640860572947
 21
72.898506120319368
 31
0.0
  0
LINE
  5
46A
  8
0
 39
5.0
 10
117.6303860572947
 20
72.991206120319376
 30
0.0
 11
117.6384860572947
 21
72.945406120319376
 31
0.0
  0
LINE
  5
46B
  8
0
 39
5.0
 10
117.6381860572947
 20
73.037606120319353
 30
0.0
 11
117.6303860572947
 21
72.991206120319376
 31
0.0
  0
LINE
  5
46C
  8
0
 39
5.0
 10
117.6610860572947
 20
73.08690612031937
 30
0.0
 11
117.6381860572947
 21
73.037606120319353
 31
0.0
  0
LINE
  5
46D
  8
0
 39
5.0
 10
117.69778605729471
 20
73.140906120319372
 30
0.0
 11
117.6610860572947
 21
73.08690612031937
 31
0.0
  0
LINE
  5
46E
  8
0
 39
5.0
 10
117.7471860572947
 20
73.201906120319379
 30
0.0
 11
117.69778605729471
 21
73.140906120319372
 31
0.0
  0
LINE
  5
46F
  8
0
 39
5.0
 10
117.8080860572947
 20
73.271706120319379
 30
0.0
 11
117.7471860572947
 21
73.201906120319379
 31
0.0
  0
LINE
  5
470
  8
0
 39
5.0
 10
117.8794860572947
 20
73.352506120319376
 30
0.0
 11
117.8080860572947
 21
73.271706120319379
 31
0.0
  0
LINE
  5
471
  8
0
 39
5.0
 10
117.9599860572947
 20
73.446206120319374
 30
0.0
 11
117.8794860572947
 21
73.352506120319376
 31
0.0
  0
LINE
  5
472
  8
0
 39
5.0
 10
118.0486860572947
 20
73.555006120319376
 30
0.0
 11
117.9599860572947
 21
73.446206120319374
 31
0.0
  0
LINE
  5
473
  8
0
 39
5.0
 10
118.0486860572947
 20
73.555006120319376
 30
0.0
 11
118.0486860572947
 21
73.555006120319376
 31
0.0
  0
LINE
  5
474
  8
0
 39
5.0
 10
122.92858605729469
 20
77.67816048774182
 30
0.0
 11
118.0486860572947
 21
73.555006120319376
 31
0.0
  0
LINE
  5
475
  8
0
 39
5.0
 10
122.2933860572947
 20
79.145906120319381
 30
0.0
 11
122.92858605729469
 21
79.150160539647217
 31
0.0
  0
LINE
  5
476
  8
0
 39
5.0
 10
118.42858605729469
 20
84.619397682141496
 30
0.0
 11
122.2933860572947
 21
79.145906120319381
 31
0.0
  0
LINE
  5
477
  8
0
 39
5.0
 10
117.3400860572947
 20
90.297306120319377
 30
0.0
 11
118.42858605729469
 21
89.178954741199817
 31
0.0
  0
LINE
  5
478
  8
0
 39
5.0
 10
110.92858605729469
 20
90.297306120319377
 30
0.0
 11
117.3400860572947
 21
90.297306120319377
 31
0.0
  0
LINE
  5
479
  8
0
 39
5.0
 10
119.9830860572947
 20
70.797306120319377
 30
0.0
 11
110.92858605729469
 21
70.797306120319377
 31
0.0
  0
LINE
  5
47A
  8
0
 39
5.0
 10
116.8333860572947
 20
72.273706120319375
 30
0.0
 11
119.9830860572947
 21
70.797306120319377
 31
0.0
  0
LINE
  5
47B
  8
0
 39
5.0
 10
116.7261860572947
 20
72.344106120319367
 30
0.0
 11
116.8333860572947
 21
72.273706120319375
 31
0.0
  0
LINE
  5
47C
  8
0
 39
5.0
 10
116.6354860572947
 20
72.418706120319371
 30
0.0
 11
116.7261860572947
 21
72.344106120319367
 31
0.0
  0
LINE
  5
47D
  8
0
 39
5.0
 10
116.5604860572947
 20
72.49660612031937
 30
0.0
 11
116.6354860572947
 21
72.418706120319371
 31
0.0
  0
LINE
  5
47E
  8
0
 39
5.0
 10
116.5007860572947
 20
72.577606120319373
 30
0.0
 11
116.5604860572947
 21
72.49660612031937
 31
0.0
  0
LINE
  5
47F
  8
0
 39
5.0
 10
116.4555860572947
 20
72.660706120319375
 30
0.0
 11
116.5007860572947
 21
72.577606120319373
 31
0.0
  0
LINE
  5
480
  8
0
 39
5.0
 10
116.42858605729469
 20
72.734350351088594
 30
0.0
 11
116.4555860572947
 21
72.660706120319375
 31
0.0
  0
LINE
  5
481
  8
0
 39
5.0
 10
116.45888605729471
 20
73.176506120319374
 30
0.0
 11
116.42858605729469
 21
73.09150612031938
 31
0.0
  0
LINE
  5
482
  8
0
 39
5.0
 10
116.49998605729471
 20
73.259806120319368
 30
0.0
 11
116.45888605729471
 21
73.176506120319374
 31
0.0
  0
LINE
  5
483
  8
0
 39
5.0
 10
116.5507860572947
 20
73.340706120319354
 30
0.0
 11
116.49998605729471
 21
73.259806120319368
 31
0.0
  0
LINE
  5
484
  8
0
 39
5.0
 10
116.61128605729471
 20
73.418706120319371
 30
0.0
 11
116.5507860572947
 21
73.340706120319354
 31
0.0
  0
LINE
  5
485
  8
0
 39
5.0
 10
116.6804860572947
 20
73.493306120319374
 30
0.0
 11
116.61128605729471
 21
73.418706120319371
 31
0.0
  0
LINE
  5
486
  8
0
 39
5.0
 10
116.7580860572947
 20
73.563906120319373
 30
0.0
 11
116.6804860572947
 21
73.493306120319374
 31
0.0
  0
LINE
  5
487
  8
0
 39
5.0
 10
116.7580860572947
 20
73.563906120319373
 30
0.0
 11
116.7580860572947
 21
73.563906120319373
 31
0.0
  0
LINE
  5
488
  8
0
 39
5.0
 10
120.9673860572947
 20
77.314506120319379
 30
0.0
 11
116.7580860572947
 21
73.563906120319373
 31
0.0
  0
LINE
  5
489
  8
0
 39
5.0
 10
121.0998860572947
 20
77.47690612031937
 30
0.0
 11
120.9673860572947
 21
77.314506120319379
 31
0.0
  0
LINE
  5
48A
  8
0
 39
5.0
 10
121.2150860572947
 20
77.627006120319379
 30
0.0
 11
121.0998860572947
 21
77.47690612031937
 31
0.0
  0
LINE
  5
48B
  8
0
 39
5.0
 10
121.3127860572947
 20
77.766006120319375
 30
0.0
 11
121.2150860572947
 21
77.627006120319379
 31
0.0
  0
LINE
  5
48C
  8
0
 39
5.0
 10
121.3932860572947
 20
77.895606120319371
 30
0.0
 11
121.3127860572947
 21
77.766006120319375
 31
0.0
  0
LINE
  5
48D
  8
0
 39
5.0
 10
121.4564860572947
 20
78.016906120319376
 30
0.0
 11
121.3932860572947
 21
77.895606120319371
 31
0.0
  0
LINE
  5
48E
  8
0
 39
5.0
 10
121.50298605729471
 20
78.131706120319379
 30
0.0
 11
121.4564860572947
 21
78.016906120319376
 31
0.0
  0
LINE
  5
48F
  8
0
 39
5.0
 10
121.53258605729469
 20
78.241206120319376
 30
0.0
 11
121.50298605729471
 21
78.131706120319379
 31
0.0
  0
LINE
  5
490
  8
0
 39
5.0
 10
121.5455860572947
 20
78.347006120319364
 30
0.0
 11
121.53258605729469
 21
78.241206120319376
 31
0.0
  0
LINE
  5
491
  8
0
 39
5.0
 10
121.5417860572947
 20
78.450306120319382
 30
0.0
 11
121.5455860572947
 21
78.347006120319364
 31
0.0
  0
LINE
  5
492
  8
0
 39
5.0
 10
121.5217860572947
 20
78.552906120319378
 30
0.0
 11
121.5417860572947
 21
78.450306120319382
 31
0.0
  0
LINE
  5
493
  8
0
 39
5.0
 10
121.48548605729469
 20
78.656006120319375
 30
0.0
 11
121.5217860572947
 21
78.552906120319378
 31
0.0
  0
LINE
  5
494
  8
0
 39
5.0
 10
121.43328605729469
 20
78.761206120319372
 30
0.0
 11
121.48548605729469
 21
78.656006120319375
 31
0.0
  0
LINE
  5
495
  8
0
 39
5.0
 10
121.36478605729469
 20
78.869706120319364
 30
0.0
 11
121.43328605729469
 21
78.761206120319372
 31
0.0
  0
LINE
  5
496
  8
0
 39
5.0
 10
121.2807860572947
 20
78.983406120319373
 30
0.0
 11
121.36478605729469
 21
78.869706120319364
 31
0.0
  0
LINE
  5
497
  8
0
 39
5.0
 10
121.1809860572947
 20
79.103306120319374
 30
0.0
 11
121.2807860572947
 21
78.983406120319373
 31
0.0
  0
LINE
  5
498
  8
0
 39
5.0
 10
121.0657860572947
 20
79.231206120319371
 30
0.0
 11
121.1809860572947
 21
79.103306120319374
 31
0.0
  0
LINE
  5
499
  8
0
 39
5.0
 10
121.0657860572947
 20
79.231206120319371
 30
0.0
 11
121.0657860572947
 21
79.231206120319371
 31
0.0
  0
LINE
  5
49A
  8
0
 39
5.0
 10
117.1300427989309
 20
82.797306120319377
 30
0.0
 11
121.0657860572947
 21
79.231206120319371
 31
0.0
  0
LINE
  5
49B
  8
0
 39
5.0
 10
113.35295183947621
 20
82.797306120319377
 30
0.0
 11
112.9744860572947
 21
83.942706120319357
 31
0.0
  0
POLYLINE
  5
49D
  8
0
 66
     1
 10
0.0
 20
0.0
 30
0.0
 39
5.0
  0
VERTEX
  5
5BB
  8
0
 10
121.5579860572947
 20
78.243206120319371
 30
0.0
  0
VERTEX
  5
5BC
  8
0
 10
110.92858605729469
 20
78.243206120319371
 30
0.0
  0
SEQEND
  5
5BD
  8
0
  0
POLYLINE
  5
49E
  8
0
 66
     1
 10
0.0
 20
0.0
 30
0.0
 39
5.0
  0
VERTEX
  5
5BE
  8
0
 10
116.42858605729469
 20
72.773406120319379
 30
0.0
  0
VERTEX
  5
5BF
  8
0
 10
110.92858605729469
 20
72.773406120319379
 30
0.0
  0
SEQEND
  5
5C0
  8
0
  0
LINE
  5
49F
  8
0
 10
122.92858605729469
 20
79.150160539647217
 30
0.0
 11
122.92858605729469
 21
77.67816048774182
 31
0.0
  0
LINE
  5
4A0
  8
0
 10
120.92858605729469
 20
70.797306120319377
 30
0.0
 11
110.92858605729469
 21
70.797306120319377
 31
0.0
  0
LINE
  5
4A1
  8
0
 10
120.92858605729469
 20
70.821879392226123
 30
0.0
 11
120.92858605729469
 21
70.797306120319377
 31
0.0
  0
LINE
  5
4A2
  8
0
 10
116.42858605729469
 20
73.09150612031938
 30
0.0
 11
116.42858605729469
 21
72.734350351088565
 31
0.0
  0
LINE
  5
4A3
  8
0
 10
118.42858605729469
 20
89.178954741199817
 30
0.0
 11
118.42858605729469
 21
84.619397682141496
 31
0.0
  0
LINE
  5
4A4
  8
0
 10
112.9744860572947
 20
83.942706120319357
 30
0.0
 11
116.42858605729469
 21
83.942706120319386
 31
0.0
  0
LINE
  5
4A5
  8
0
 10
116.42858605729469
 20
82.797306120319377
 30
0.0
 11
117.1300427989309
 21
82.797306120319377
 31
0.0
  0
LINE
  5
4A6
  8
0
 10
110.92858605729469
 20
82.797306120319377
 30
0.0
 11
113.3529518394763
 21
82.797306120319377
 31
0.0
  0
LINE
  5
4A7
  8
0
 10
110.92858605729469
 20
85.797306120319377
 30
0.0
 11
116.42858605729469
 21
85.797306120319377
 31
0.0
  0
LINE
  5
4A8
  8
0
 10
113.42858605729469
 20
90.297306120319377
 30
0.0
 11
113.42858605729469
 21
85.797306120319377
 31
0.0
  0
DIMENSION
  5
4AE
  8
2
  2
*D1
 10
113.42858605729469
 20
97.394784167962484
 30
0.0
 11
121.13691939062799
 21
99.269784167962484
 31
0.0
 70
     0
  1
%%c<>
 13
108.42858605729469
 23
90.297306120319377
 33
0.0
 14
113.42858605729469
 24
90.297306120319377
 34
0.0
  0
LINE
  5
4BD
  8
0
 10
105.42858605729469
 20
85.797306120319377
 30
0.0
 11
105.42858605729469
 21
82.797306120319377
 31
0.0
  0
LINE
  5
4D8
  8
0
 10
116.42858605729479
 20
85.797306120319377
 30
0.0
 11
116.42858605729469
 21
82.797306120319377
 31
0.0
  0
DIMENSION
  5
4DA
  8
2
  2
*D2
 10
116.42858605729469
 20
102.2155921551232
 30
0.0
 11
110.92858605729469
 21
104.0905921551231
 31
0.0
 70
     0
  1
%%c<>
 13
105.42858605729469
 23
85.797306120319377
 33
0.0
 14
116.42858605729469
 24
85.797306120319377
 34
0.0
  0
DIMENSION
  5
4E7
  8
2
  2
*D3
 10
118.42858605729469
 20
106.1647199002327
 30
0.0
 11
110.92858605729469
 21
108.0397199002328
 31
0.0
 70
     0
  1
%%c<>
 13
103.42858605729469
 23
89.178954741199817
 33
0.0
 14
118.42858605729469
 24
89.178954741199817
 34
0.0
  0
DIMENSION
  5
4F4
  8
2
  2
*D4
 10
134.80327566122111
 20
85.797306120319377
 30
0.0
 11
132.92827566122111
 21
77.672306120319391
 31
0.0
 70
     0
 13
116.42858605729469
 23
90.297306120319377
 33
0.0
 14
116.42858605729479
 24
85.797306120319377
 34
0.0
 50
90.0
  0
DIMENSION
  5
503
  8
2
  2
*D5
 10
141.0923643330905
 20
70.797306120319377
 30
0.0
 11
139.2173643330905
 21
80.547306120319391
 31
0.0
 70
     0
 13
116.42858605729469
 23
90.297306120319377
 33
0.0
 14
120.92858605729469
 24
70.797306120319377
 34
0.0
 50
90.0
  0
DIMENSION
  5
510
  8
2
  2
*D6
 10
91.359691496957566
 20
82.797306120319377
 30
0.0
 11
89.484691496957552
 21
76.797306120319405
 31
0.0
 70
     0
 13
100.92858605729469
 23
70.797306120319377
 33
0.0
 14
105.42858605729469
 24
82.797306120319377
 34
0.0
 50
90.0
  0
DIMENSION
  5
51E
  8
2
  2
*D7
 10
116.42858605729469
 20
63.82209118382616
 30
0.0
 11
110.92858605729469
 21
65.69709118382616
 31
0.0
 70
     0
  1
%%c<>
 13
105.42858605729469
 23
72.773406120319379
 33
0.0
 14
116.42858605729469
 24
72.773406120319379
 34
0.0
  0
DIMENSION
  5
52B
  8
2
  2
*D8
 10
120.92858605729469
 20
59.14514637581248
 30
0.0
 11
110.92858605729469
 21
61.02014637581248
 31
0.0
 70
     0
  1
%%c<>
 13
100.92858605729469
 23
70.797306120319377
 33
0.0
 14
120.92858605729469
 24
70.797306120319377
 34
0.0
1001
ACAD
1000
DSTYLE
1002
{
1070
   271
1070
     6
1002
}
  0
DIMENSION
  5
538
  8
2
  2
*D9
 10
122.92858605729469
 20
53.799545457398487
 30
0.0
 11
110.92858605729469
 21
55.674545457398487
 31
0.0
 70
     0
  1
%%c<>
 13
98.928586057294751
 23
77.67816048774182
 33
0.0
 14
122.92858605729469
 24
77.67816048774182
 34
0.0
1001
ACAD
1000
DSTYLE
1002
{
1070
   271
1070
     6
1002
}
  0
ENDSEC
  0
EOF
