  0
SECTION
  2
HEADER
  9
$ACADVER
  1
AC1009
  9
$INSBASE
 10
0.0
 20
0.0
 30
0.0
  9
$EXTMIN
 10
53.196802155919883
 20
44.93149298210254
 30
0.0
  9
$EXTMAX
 10
99.609743600615218
 20
109.3626306433583
 30
4.1223287309999987
  9
$LIMMIN
 10
0.0
 20
0.0
  9
$LIMMAX
 10
420.0
 20
297.0
  9
$ORTHOMODE
 70
     0
  9
$REGENMODE
 70
     1
  9
$FILLMODE
 70
     1
  9
$QTEXTMODE
 70
     0
  9
$MIRRTEXT
 70
     1
  9
$DRAGMODE
 70
     2
  9
$LTSCALE
 40
0.3
  9
$OSMODE
 70
    37
  9
$ATTMODE
 70
     1
  9
$TEXTSIZE
 40
2.5
  9
$TRACEWID
 40
1.0
  9
$TEXTSTYLE
  7
STANDARD
  9
$CLAYER
  8
2
  9
$CELTYPE
  6
BYLAYER
  9
$CECOLOR
 62
   256
  9
$DIMSCALE
 40
1.0
  9
$DIMASZ
 40
2.5
  9
$DIMEXO
 40
0.625
  9
$DIMDLI
 40
3.75
  9
$DIMRND
 40
0.0
  9
$DIMDLE
 40
0.0
  9
$DIMEXE
 40
1.25
  9
$DIMTP
 40
0.0
  9
$DIMTM
 40
0.0
  9
$DIMTXT
 40
2.5
  9
$DIMCEN
 40
2.5
  9
$DIMTSZ
 40
0.0
  9
$DIMTOL
 70
     0
  9
$DIMLIM
 70
     0
  9
$DIMTIH
 70
     0
  9
$DIMTOH
 70
     0
  9
$DIMSE1
 70
     0
  9
$DIMSE2
 70
     0
  9
$DIMTAD
 70
     1
  9
$DIMZIN
 70
     8
  9
$DIMBLK
  1

  9
$DIMASO
 70
     1
  9
$DIMSHO
 70
     1
  9
$DIMPOST
  1

  9
$DIMAPOST
  1

  9
$DIMALT
 70
     0
  9
$DIMALTD
 70
     3
  9
$DIMALTF
 40
0.03937007874016
  9
$DIMLFAC
 40
1.0
  9
$DIMTOFL
 70
     1
  9
$DIMTVP
 40
0.0
  9
$DIMTIX
 70
     0
  9
$DIMSOXD
 70
     0
  9
$DIMSAH
 70
     0
  9
$DIMBLK1
  1

  9
$DIMBLK2
  1

  9
$DIMSTYLE
  2
ISO-25
  9
$DIMCLRD
 70
     0
  9
$DIMCLRE
 70
     0
  9
$DIMCLRT
 70
     0
  9
$DIMTFAC
 40
1.0
  9
$DIMGAP
 40
0.625
  9
$LUNITS
 70
     2
  9
$LUPREC
 70
     4
  9
$SKETCHINC
 40
1.0
  9
$FILLETRAD
 40
10.0
  9
$AUNITS
 70
     0
  9
$AUPREC
 70
     0
  9
$MENU
  1
.
  9
$ELEVATION
 40
0.0
  9
$PELEVATION
 40
0.0
  9
$THICKNESS
 40
0.0
  9
$LIMCHECK
 70
     0
  9
$BLIPMODE
 70
     0
  9
$CHAMFERA
 40
10.0
  9
$CHAMFERB
 40
10.0
  9
$SKPOLY
 70
     0
  9
$TDCREATE
 40
2453439.4591839812
  9
$TDUPDATE
 40
2453551.910784502
  9
$TDINDWG
 40
0.0435940394
  9
$TDUSRTIMER
 40
0.0435940394
  9
$USRTIMER
 70
     1
  9
$ANGBASE
 50
0.0
  9
$ANGDIR
 70
     0
  9
$PDMODE
 70
     0
  9
$PDSIZE
 40
0.0
  9
$PLINEWID
 40
0.0
  9
$COORDS
 70
     1
  9
$SPLFRAME
 70
     0
  9
$SPLINETYPE
 70
     6
  9
$SPLINESEGS
 70
     8
  9
$ATTDIA
 70
     0
  9
$ATTREQ
 70
     1
  9
$HANDLING
 70
-16383
  9
$HANDSEED
  5
765
  9
$SURFTAB1
 70
     6
  9
$SURFTAB2
 70
     6
  9
$SURFTYPE
 70
     6
  9
$SURFU
 70
     6
  9
$SURFV
 70
     6
  9
$UCSNAME
  2

  9
$UCSORG
 10
0.0
 20
0.0
 30
0.0
  9
$UCSXDIR
 10
1.0
 20
0.0
 30
0.0
  9
$UCSYDIR
 10
0.0
 20
1.0
 30
0.0
  9
$PUCSNAME
  2

  9
$PUCSORG
 10
0.0
 20
0.0
 30
0.0
  9
$PUCSXDIR
 10
1.0
 20
0.0
 30
0.0
  9
$PUCSYDIR
 10
0.0
 20
1.0
 30
0.0
  9
$USERI1
 70
     0
  9
$USERI2
 70
     0
  9
$USERI3
 70
     0
  9
$USERI4
 70
     0
  9
$USERI5
 70
     0
  9
$USERR1
 40
0.0
  9
$USERR2
 40
0.0
  9
$USERR3
 40
0.0
  9
$USERR4
 40
0.0
  9
$USERR5
 40
0.0
  9
$WORLDVIEW
 70
     1
  9
$SHADEDGE
 70
     3
  9
$SHADEDIF
 70
    70
  9
$TILEMODE
 70
     1
  9
$MAXACTVP
 70
    64
  9
$PLIMCHECK
 70
     0
  9
$PEXTMIN
 10
1.0000000000000000E+020
 20
1.0000000000000000E+020
 30
1.0000000000000000E+020
  9
$PEXTMAX
 10
-1.0000000000000000E+020
 20
-1.0000000000000000E+020
 30
-1.0000000000000000E+020
  9
$PLIMMIN
 10
0.0
 20
0.0
  9
$PLIMMAX
 10
420.0
 20
297.0
  9
$UNITMODE
 70
     0
  9
$VISRETAIN
 70
     1
  9
$PLINEGEN
 70
     0
  9
$PSLTSCALE
 70
     1
  0
ENDSEC
  0
SECTION
  2
TABLES
  0
TABLE
  2
VPORT
 70
     2
  0
VPORT
  2
*ACTIVE
 70
     0
 10
0.0
 20
0.0
 11
1.0
 21
1.0
 12
90.628126032628131
 22
76.154786040075464
 13
0.0
 23
0.0
 14
10.0
 24
10.0
 15
10.0
 25
10.0
 16
0.0
 26
0.0
 36
1.0
 17
0.0
 27
0.0
 37
0.0
 40
99.090180392415121
 41
2.5392405063291141
 42
50.0
 43
0.0
 44
0.0
 50
0.0
 51
0.0
 71
     0
 72
   100
 73
     1
 74
     3
 75
     0
 76
     0
 77
     0
 78
     0
  0
ENDTAB
  0
TABLE
  2
LTYPE
 70
     2
  0
LTYPE
  2
CONTINUOUS
 70
     0
  3
Solid line
 72
    65
 73
     0
 40
0.0
  0
LTYPE
  2
CENTER
 70
     0
  3
Center ____ _ ____ _ ____ _ ____ _ ____ _ ____
 72
    65
 73
     4
 40
50.799999999999997
 49
31.75
 49
-6.3499999999999988
 49
6.3499999999999988
 49
-6.3499999999999988
  0
ENDTAB
  0
TABLE
  2
LAYER
 70
     4
  0
LAYER
  2
0
 70
     0
 62
     7
  6
CONTINUOUS
  0
LAYER
  2
1
 70
     0
 62
     7
  6
CENTER
  0
LAYER
  2
2
 70
     0
 62
     7
  6
CONTINUOUS
  0
LAYER
  2
DEFPOINTS
 70
     0
 62
     7
  6
CONTINUOUS
  0
ENDTAB
  0
TABLE
  2
STYLE
 70
     3
  0
STYLE
  2
STANDARD
 70
     0
 40
0.0
 41
1.0
 50
0.0
 71
     0
 42
2.5
  3
txt
  4

  0
STYLE
  2
\U+00C9L\U+00C9R_\U+00C2S\U+00C2V\U+00C2B\U+00C2N
 70
     0
 40
1.0
 41
1.0
 50
0.0
 71
     0
 42
1.0
  3
\U+00E9l\U+00E9r \U+00E2S\U+00E2V\U+00E2b\U+00E2N
  4

  0
STYLE
  2

 70
     1
 40
0.0
 41
1.0
 50
0.0
 71
     0
 42
2.5
  3
ltypeshp.shx
  4

  0
ENDTAB
  0
TABLE
  2
VIEW
 70
     0
  0
ENDTAB
  0
TABLE
  2
UCS
 70
     0
  0
ENDTAB
  0
TABLE
  2
APPID
 70
     1
  0
APPID
  2
ACAD
 70
     0
  0
ENDTAB
  0
TABLE
  2
DIMSTYLE
 70
     2
  0
DIMSTYLE
  2
ISO-25
 70
     0
  3

  4

  5

  6

  7

 40
1.0
 41
2.5
 42
0.625
 43
3.75
 44
1.25
 45
0.0
 46
0.0
 47
0.0
 48
0.0
140
2.5
141
2.5
142
0.0
143
0.03937007874016
144
1.0
145
0.0
146
1.0
147
0.625
 71
     0
 72
     0
 73
     0
 74
     0
 75
     0
 76
     0
 77
     1
 78
     8
170
     0
171
     3
172
     1
173
     0
174
     0
175
     0
176
     0
177
     0
178
     0
  0
DIMSTYLE
  2
STANDARD
 70
     0
  3

  4

  5

  6

  7

 40
1.0
 41
0.18
 42
0.0625
 43
0.38
 44
0.18
 45
0.0
 46
0.0
 47
0.0
 48
0.0
140
0.18
141
0.09
142
0.0
143
25.399999999999999
144
1.0
145
0.0
146
1.0
147
0.09
 71
     0
 72
     0
 73
     1
 74
     1
 75
     0
 76
     0
 77
     0
 78
     0
170
     0
171
     2
172
     0
173
     0
174
     0
175
     0
176
     0
177
     0
178
     0
  0
ENDTAB
  0
ENDSEC
  0
SECTION
  2
BLOCKS
  0
BLOCK
  8
0
  2
$MODEL_SPACE
 70
     0
 10
0.0
 20
0.0
 30
0.0
  3
$MODEL_SPACE
  1

  0
ENDBLK
  5
21
  8
0
  0
BLOCK
 67
     1
  8
0
  2
$PAPER_SPACE
 70
     0
 10
0.0
 20
0.0
 30
0.0
  3
$PAPER_SPACE
  1

  0
ENDBLK
  5
1D
 67
     1
  8
0
  0
BLOCK
  8
0
  2
*D1
 70
     1
 10
0.0
 20
0.0
 30
0.0
  3
*D1
  1

  0
LINE
  5
6E7
  8
2
 62
     0
 10
68.534423545370814
 20
90.879954189769819
 30
0.0
 11
68.534423545370814
 21
98.591097628783629
 31
0.0
  0
LINE
  5
6E8
  8
2
 62
     0
 10
72.534423545370814
 20
90.879954189769819
 30
0.0
 11
72.534423545370814
 21
98.591097628783629
 31
0.0
  0
LINE
  5
6E9
  8
2
 62
     0
 10
66.034423545370814
 20
97.341097628783629
 30
0.0
 11
63.534423545370807
 21
97.341097628783629
 31
0.0
  0
LINE
  5
6EA
  8
2
 62
     0
 10
75.034423545370814
 20
97.341097628783629
 30
0.0
 11
82.951090212037485
 21
97.341097628783629
 31
0.0
  0
LINE
  5
6EB
  8
2
 62
     0
 10
68.534423545370814
 20
97.341097628783629
 30
0.0
 11
72.534423545370814
 21
97.341097628783629
 31
0.0
  0
SOLID
  5
6EC
  8
2
 62
     0
 10
66.034423545370814
 20
97.757764295450315
 30
0.0
 11
66.034423545370814
 21
96.924430962116972
 31
0.0
 12
68.534423545370814
 22
97.341097628783629
 32
0.0
 13
68.534423545370814
 23
97.341097628783629
 33
0.0
  0
SOLID
  5
6ED
  8
2
 62
     0
 10
75.034423545370814
 20
97.757764295450315
 30
0.0
 11
75.034423545370814
 21
96.924430962116972
 31
0.0
 12
72.534423545370814
 22
97.341097628783629
 32
0.0
 13
72.534423545370814
 23
97.341097628783629
 33
0.0
  0
INSERT
  5
6EE
  8
2
  2
*U13
 10
0.0
 20
0.0
 30
0.0
  0
POINT
  5
6EF
  8
DEFPOINTS
 62
     0
 10
68.534423545370814
 20
90.254954189769819
 30
0.0
  0
POINT
  5
6F0
  8
DEFPOINTS
 62
     0
 10
72.534423545370814
 20
90.254954189769819
 30
0.0
  0
POINT
  5
6F1
  8
DEFPOINTS
 62
     0
 10
72.534423545370814
 20
97.341097628783629
 30
0.0
  0
ENDBLK
  5
627
  8
0
  0
BLOCK
  8
0
  2
*D2
 70
     1
 10
0.0
 20
0.0
 30
0.0
  3
*D2
  1

  0
LINE
  5
6DC
  8
2
 62
     0
 10
67.534423545370814
 20
88.879954189769819
 30
0.0
 11
67.534423545370814
 21
102.9384186791699
 31
0.0
  0
LINE
  5
6DD
  8
2
 62
     0
 10
73.534423545370814
 20
88.879954189769819
 30
0.0
 11
73.534423545370814
 21
102.9384186791699
 31
0.0
  0
LINE
  5
6DE
  8
2
 62
     0
 10
65.034423545370814
 20
101.68841867917
 30
0.0
 11
62.534423545370821
 21
101.68841867917
 31
0.0
  0
LINE
  5
6DF
  8
2
 62
     0
 10
76.034423545370814
 20
101.68841867917
 30
0.0
 11
78.534423545370814
 21
101.68841867917
 31
0.0
  0
LINE
  5
6E0
  8
2
 62
     0
 10
67.534423545370814
 20
101.68841867917
 30
0.0
 11
73.534423545370814
 21
101.68841867917
 31
0.0
  0
SOLID
  5
6E1
  8
2
 62
     0
 10
65.034423545370814
 20
102.1050853458366
 30
0.0
 11
65.034423545370814
 21
101.2717520125033
 31
0.0
 12
67.534423545370814
 22
101.68841867917
 32
0.0
 13
67.534423545370814
 23
101.68841867917
 33
0.0
  0
SOLID
  5
6E2
  8
2
 62
     0
 10
76.034423545370814
 20
102.1050853458366
 30
0.0
 11
76.034423545370814
 21
101.2717520125033
 31
0.0
 12
73.534423545370814
 22
101.68841867917
 32
0.0
 13
73.534423545370814
 23
101.68841867917
 33
0.0
  0
INSERT
  5
6E3
  8
2
  2
*U12
 10
0.0
 20
0.0
 30
0.0
  0
POINT
  5
6E4
  8
DEFPOINTS
 62
     0
 10
67.534423545370814
 20
88.254954189769819
 30
0.0
  0
POINT
  5
6E5
  8
DEFPOINTS
 62
     0
 10
73.534423545370814
 20
88.254954189769819
 30
0.0
  0
POINT
  5
6E6
  8
DEFPOINTS
 62
     0
 10
73.534423545370814
 20
101.68841867917
 30
0.0
  0
ENDBLK
  5
636
  8
0
  0
BLOCK
  8
0
  2
*D3
 70
     1
 10
0.0
 20
0.0
 30
0.0
  3
*D3
  1

  0
LINE
  5
6D2
  8
2
 62
     0
 10
66.284423545370814
 20
90.879954189769819
 30
0.0
 11
66.284423545370814
 21
107.4876306433583
 31
0.0
  0
LINE
  5
6D3
  8
2
 62
     0
 10
74.784423545370814
 20
90.879954189769819
 30
0.0
 11
74.784423545370814
 21
107.4876306433583
 31
0.0
  0
LINE
  5
6D4
  8
2
 62
     0
 10
68.784423545370814
 20
106.2376306433583
 30
0.0
 11
72.284423545370814
 21
106.2376306433583
 31
0.0
  0
LINE
  5
6D5
  8
2
 62
     0
 10
74.784423545370814
 20
106.2376306433583
 30
0.0
 11
86.034423545370814
 21
106.2376306433583
 31
0.0
  0
SOLID
  5
6D6
  8
2
 62
     0
 10
68.784423545370814
 20
106.654297310025
 30
0.0
 11
68.784423545370814
 21
105.8209639766916
 31
0.0
 12
66.284423545370814
 22
106.2376306433583
 32
0.0
 13
66.284423545370814
 23
106.2376306433583
 33
0.0
  0
SOLID
  5
6D7
  8
2
 62
     0
 10
72.284423545370814
 20
106.654297310025
 30
0.0
 11
72.284423545370814
 21
105.8209639766916
 31
0.0
 12
74.784423545370814
 22
106.2376306433583
 32
0.0
 13
74.784423545370814
 23
106.2376306433583
 33
0.0
  0
INSERT
  5
6D8
  8
2
  2
*U11
 10
0.0
 20
0.0
 30
0.0
  0
POINT
  5
6D9
  8
DEFPOINTS
 62
     0
 10
66.284423545370814
 20
90.254954189769819
 30
0.0
  0
POINT
  5
6DA
  8
DEFPOINTS
 62
     0
 10
74.784423545370814
 20
90.254954189769819
 30
0.0
  0
POINT
  5
6DB
  8
DEFPOINTS
 62
     0
 10
74.784423545370814
 20
106.2376306433583
 30
0.0
  0
ENDBLK
  5
643
  8
0
  0
BLOCK
  8
0
  2
*D4
 70
     1
 10
0.0
 20
0.0
 30
0.0
  3
*D4
  1

  0
LINE
  5
646
  8
2
 62
     0
 10
75.409423545370814
 20
90.254954189769819
 30
0.0
 11
87.877765758564067
 21
90.254954189769819
 31
0.0
  0
LINE
  5
647
  8
2
 62
     0
 10
74.159423545370814
 20
88.254954189769819
 30
0.0
 11
87.877765758564067
 21
88.254954189769819
 31
0.0
  0
LINE
  5
648
  8
2
 62
     0
 10
86.627765758564067
 20
92.754954189769819
 30
0.0
 11
86.627765758564067
 21
95.254954189769819
 31
0.0
  0
LINE
  5
649
  8
2
 62
     0
 10
86.627765758564067
 20
85.754954189769819
 30
0.0
 11
86.627765758564067
 21
80.338287523103148
 31
0.0
  0
LINE
  5
64A
  8
2
 62
     0
 10
86.627765758564067
 20
90.254954189769819
 30
0.0
 11
86.627765758564067
 21
88.254954189769819
 31
0.0
  0
SOLID
  5
64B
  8
2
 62
     0
 10
86.211099091897395
 20
92.754954189769819
 30
0.0
 11
87.044432425230738
 21
92.754954189769819
 31
0.0
 12
86.627765758564067
 22
90.254954189769819
 32
0.0
 13
86.627765758564067
 23
90.254954189769819
 33
0.0
  0
SOLID
  5
64C
  8
2
 62
     0
 10
86.211099091897395
 20
85.754954189769819
 30
0.0
 11
87.044432425230738
 21
85.754954189769819
 31
0.0
 12
86.627765758564067
 22
88.254954189769819
 32
0.0
 13
86.627765758564067
 23
88.254954189769819
 33
0.0
  0
TEXT
  5
64D
  8
2
 62
     0
 10
86.002765758564053
 20
80.963287523103176
 30
0.0
 40
2.5
  1
2
 50
90.0
  0
POINT
  5
64E
  8
DEFPOINTS
 62
     0
 10
74.784423545370814
 20
90.254954189769819
 30
0.0
  0
POINT
  5
64F
  8
DEFPOINTS
 62
     0
 10
73.534423545370814
 20
88.254954189769819
 30
0.0
  0
POINT
  5
650
  8
DEFPOINTS
 62
     0
 10
86.627765758564067
 20
88.254954189769819
 30
0.0
  0
ENDBLK
  5
652
  8
0
  0
BLOCK
  8
0
  2
*D5
 70
     1
 10
0.0
 20
0.0
 30
0.0
  3
*D5
  1

  0
LINE
  5
655
  8
2
 62
     0
 10
76.034423545370814
 20
90.254954189769819
 30
0.0
 11
93.746100317465263
 21
90.254954189769819
 31
0.0
  0
LINE
  5
656
  8
2
 62
     0
 10
74.159423545370814
 20
86.254954189769805
 30
0.0
 11
93.746100317465263
 21
86.254954189769805
 31
0.0
  0
LINE
  5
657
  8
2
 62
     0
 10
92.496100317465263
 20
92.754954189769819
 30
0.0
 11
92.496100317465263
 21
95.254954189769819
 31
0.0
  0
LINE
  5
658
  8
2
 62
     0
 10
92.496100317465263
 20
83.754954189769805
 30
0.0
 11
92.496100317465263
 21
81.254954189769805
 31
0.0
  0
LINE
  5
659
  8
2
 62
     0
 10
92.496100317465263
 20
90.254954189769819
 30
0.0
 11
92.496100317465263
 21
86.254954189769805
 31
0.0
  0
SOLID
  5
65A
  8
2
 62
     0
 10
92.079433650798606
 20
92.754954189769819
 30
0.0
 11
92.912766984131949
 21
92.754954189769819
 31
0.0
 12
92.496100317465263
 22
90.254954189769819
 32
0.0
 13
92.496100317465263
 23
90.254954189769819
 33
0.0
  0
SOLID
  5
65B
  8
2
 62
     0
 10
92.079433650798606
 20
83.754954189769805
 30
0.0
 11
92.912766984131949
 21
83.754954189769805
 31
0.0
 12
92.496100317465263
 22
86.254954189769805
 32
0.0
 13
92.496100317465263
 23
86.254954189769805
 33
0.0
  0
TEXT
  5
65C
  8
2
 62
     0
 10
91.871100317465249
 20
87.421620856436505
 30
0.0
 40
2.5
  1
4
 50
90.0
  0
POINT
  5
65D
  8
DEFPOINTS
 62
     0
 10
75.409423545370814
 20
90.254954189769819
 30
0.0
  0
POINT
  5
65E
  8
DEFPOINTS
 62
     0
 10
73.534423545370814
 20
86.254954189769805
 30
0.0
  0
POINT
  5
65F
  8
DEFPOINTS
 62
     0
 10
92.496100317465263
 20
86.254954189769805
 30
0.0
  0
ENDBLK
  5
661
  8
0
  0
BLOCK
  8
0
  2
*D6
 70
     1
 10
0.0
 20
0.0
 30
0.0
  3
*D6
  1

  0
LINE
  5
66F
  8
2
 62
     0
 10
75.409423545370814
 20
90.254954189769819
 30
0.0
 11
99.609743600615218
 21
90.254954189769805
 31
0.0
  0
LINE
  5
670
  8
2
 62
     0
 10
78.183871702962648
 20
74.254954189769819
 30
0.0
 11
99.609743600615218
 21
74.254954189769805
 31
0.0
  0
LINE
  5
671
  8
2
 62
     0
 10
98.359743600615218
 20
87.754954189769805
 30
0.0
 11
98.359743600615218
 21
76.754954189769805
 31
0.0
  0
SOLID
  5
672
  8
2
 62
     0
 10
97.943076933948561
 20
87.754954189769805
 30
0.0
 11
98.776410267281889
 21
87.754954189769805
 31
0.0
 12
98.359743600615218
 22
90.254954189769805
 32
0.0
 13
98.359743600615218
 23
90.254954189769805
 33
0.0
  0
SOLID
  5
673
  8
2
 62
     0
 10
97.943076933948561
 20
76.754954189769805
 30
0.0
 11
98.776410267281889
 21
76.754954189769805
 31
0.0
 12
98.359743600615218
 22
74.254954189769805
 32
0.0
 13
98.359743600615218
 23
74.254954189769805
 33
0.0
  0
TEXT
  5
674
  8
2
 62
     0
 10
97.734743600615204
 20
80.588287523103176
 30
0.0
 40
2.5
  1
16
 50
90.0
  0
POINT
  5
675
  8
DEFPOINTS
 62
     0
 10
74.784423545370814
 20
90.254954189769819
 30
0.0
  0
POINT
  5
676
  8
DEFPOINTS
 62
     0
 10
77.558871702962648
 20
74.254954189769819
 30
0.0
  0
POINT
  5
677
  8
DEFPOINTS
 62
     0
 10
98.359743600615218
 20
74.254954189769805
 30
0.0
  0
ENDBLK
  5
66E
  8
0
  0
BLOCK
  8
0
  2
*D7
 70
     1
 10
0.0
 20
0.0
 30
0.0
  3
*D7
  1

  0
LINE
  5
686
  8
2
 62
     0
 10
62.884975387778979
 20
74.254954189769819
 30
0.0
 11
55.07180215591989
 21
74.254954189769819
 31
0.0
  0
LINE
  5
687
  8
2
 62
     0
 10
65.659423545370814
 20
84.254954189769819
 30
0.0
 11
55.071802155919897
 21
84.254954189769819
 31
0.0
  0
LINE
  5
688
  8
2
 62
     0
 10
56.32180215591989
 20
76.754954189769819
 30
0.0
 11
56.321802155919897
 21
81.754954189769819
 31
0.0
  0
SOLID
  5
689
  8
2
 62
     0
 10
55.905135489253219
 20
76.754954189769819
 30
0.0
 11
56.738468822586547
 21
76.754954189769819
 31
0.0
 12
56.32180215591989
 22
74.254954189769819
 32
0.0
 13
56.32180215591989
 23
74.254954189769819
 33
0.0
  0
SOLID
  5
68A
  8
2
 62
     0
 10
55.905135489253233
 20
81.754954189769819
 30
0.0
 11
56.738468822586562
 21
81.754954189769819
 31
0.0
 12
56.321802155919897
 22
84.254954189769819
 32
0.0
 13
56.321802155919897
 23
84.254954189769819
 33
0.0
  0
TEXT
  5
68B
  8
2
 62
     0
 10
55.696802155919883
 20
77.796620856436505
 30
0.0
 40
2.5
  1
10
 50
90.0
  0
POINT
  5
68C
  8
DEFPOINTS
 62
     0
 10
63.509975387778979
 20
74.254954189769819
 30
0.0
  0
POINT
  5
68D
  8
DEFPOINTS
 62
     0
 10
66.284423545370814
 20
84.254954189769819
 30
0.0
  0
POINT
  5
68E
  8
DEFPOINTS
 62
     0
 10
56.321802155919897
 20
84.254954189769819
 30
0.0
  0
ENDBLK
  5
685
  8
0
  0
BLOCK
  8
0
  2
*D8
 70
     1
 10
0.0
 20
0.0
 30
0.0
  3
*D8
  1

  0
LINE
  5
718
  8
2
 62
     0
 10
66.684423545370819
 20
75.834080915660891
 30
0.0
 11
66.684423545370819
 21
65.095353549080826
 31
0.0
  0
LINE
  5
719
  8
2
 62
     0
 10
74.384423545370794
 20
75.834080915660891
 30
0.0
 11
74.384423545370794
 21
65.095353549080826
 31
0.0
  0
LINE
  5
71A
  8
2
 62
     0
 10
69.184423545370819
 20
66.345353549080826
 30
0.0
 11
71.884423545370794
 21
66.345353549080826
 31
0.0
  0
LINE
  5
71B
  8
2
 62
     0
 10
74.384423545370794
 20
66.345353549080826
 30
0.0
 11
90.009423545370794
 21
66.345353549080826
 31
0.0
  0
SOLID
  5
71C
  8
2
 62
     0
 10
69.184423545370819
 20
66.762020215747484
 30
0.0
 11
69.184423545370819
 21
65.928686882414155
 31
0.0
 12
66.684423545370819
 22
66.345353549080826
 32
0.0
 13
66.684423545370819
 23
66.345353549080826
 33
0.0
  0
SOLID
  5
71D
  8
2
 62
     0
 10
71.884423545370794
 20
66.762020215747484
 30
0.0
 11
71.884423545370794
 21
65.928686882414155
 31
0.0
 12
74.384423545370794
 22
66.345353549080826
 32
0.0
 13
74.384423545370794
 23
66.345353549080826
 33
0.0
  0
INSERT
  5
71E
  8
2
  2
*U15
 10
0.0
 20
0.0
 30
0.0
  0
POINT
  5
71F
  8
DEFPOINTS
 62
     0
 10
66.684423545370819
 20
76.459080915660891
 30
0.0
  0
POINT
  5
720
  8
DEFPOINTS
 62
     0
 10
74.384423545370794
 20
76.459080915660891
 30
0.0
  0
POINT
  5
721
  8
DEFPOINTS
 62
     0
 10
74.384423545370794
 20
66.345353549080826
 30
0.0
  0
ENDBLK
  5
69C
  8
0
  0
BLOCK
  8
0
  2
*D9
 70
     1
 10
0.0
 20
0.0
 30
0.0
  3
*D9
  1

  0
LINE
  5
6FC
  8
2
 62
     0
 10
63.034423545370807
 20
74.154561744076872
 30
0.0
 11
63.034423545370807
 21
60.24909277681563
 31
0.0
  0
LINE
  5
6FD
  8
2
 62
     0
 10
78.034423545370814
 20
74.154561744076872
 30
0.0
 11
78.034423545370814
 21
60.24909277681563
 31
0.0
  0
LINE
  5
6FE
  8
2
 62
     0
 10
65.534423545370814
 20
61.49909277681563
 30
0.0
 11
75.534423545370814
 21
61.49909277681563
 31
0.0
  0
SOLID
  5
6FF
  8
2
 62
     0
 10
65.534423545370814
 20
61.915759443482301
 30
0.0
 11
65.534423545370814
 21
61.082426110148972
 31
0.0
 12
63.034423545370807
 22
61.49909277681563
 32
0.0
 13
63.034423545370807
 23
61.49909277681563
 33
0.0
  0
SOLID
  5
700
  8
2
 62
     0
 10
75.534423545370814
 20
61.915759443482301
 30
0.0
 11
75.534423545370814
 21
61.082426110148972
 31
0.0
 12
78.034423545370814
 22
61.49909277681563
 32
0.0
 13
78.034423545370814
 23
61.49909277681563
 33
0.0
  0
INSERT
  5
701
  8
2
  2
*U14
 10
0.0
 20
0.0
 30
0.0
  0
POINT
  5
702
  8
DEFPOINTS
 62
     0
 10
63.034423545370807
 20
74.779561744076872
 30
0.0
  0
POINT
  5
703
  8
DEFPOINTS
 62
     0
 10
78.034423545370814
 20
74.779561744076872
 30
0.0
  0
POINT
  5
704
  8
DEFPOINTS
 62
     0
 10
78.034423545370814
 20
61.49909277681563
 30
0.0
  0
ENDBLK
  5
6A9
  8
0
  0
BLOCK
  8
0
  2
*D10
 70
     1
 10
0.0
 20
0.0
 30
0.0
  3
*D10
  1

  0
LINE
  5
72D
  8
2
 62
     0
 10
62.034423545370807
 20
79.474347848464632
 30
0.0
 11
62.034423545370807
 21
55.208029319941332
 31
0.0
  0
LINE
  5
72E
  8
2
 62
     0
 10
79.034423545370814
 20
79.474347848464632
 30
0.0
 11
79.034423545370814
 21
55.208029319941332
 31
0.0
  0
LINE
  5
72F
  8
2
 62
     0
 10
64.534423545370814
 20
56.458029319941332
 30
0.0
 11
76.534423545370814
 21
56.458029319941332
 31
0.0
  0
SOLID
  5
730
  8
2
 62
     0
 10
64.534423545370814
 20
56.874695986608003
 30
0.0
 11
64.534423545370814
 21
56.041362653274668
 31
0.0
 12
62.034423545370807
 22
56.458029319941332
 32
0.0
 13
62.034423545370807
 23
56.458029319941332
 33
0.0
  0
SOLID
  5
731
  8
2
 62
     0
 10
76.534423545370814
 20
56.874695986608003
 30
0.0
 11
76.534423545370814
 21
56.041362653274668
 31
0.0
 12
79.034423545370814
 22
56.458029319941332
 32
0.0
 13
79.034423545370814
 23
56.458029319941332
 33
0.0
  0
INSERT
  5
732
  8
2
  2
*U16
 10
0.0
 20
0.0
 30
0.0
  0
POINT
  5
733
  8
DEFPOINTS
 62
     0
 10
62.034423545370807
 20
80.099347848464618
 30
0.0
  0
POINT
  5
734
  8
DEFPOINTS
 62
     0
 10
79.034423545370814
 20
80.099347848464618
 30
0.0
  0
POINT
  5
735
  8
DEFPOINTS
 62
     0
 10
79.034423545370814
 20
56.458029319941332
 30
0.0
  0
ENDBLK
  5
6B6
  8
0
  0
BLOCK
  8
0
  2
*U11
 70
     1
 10
0.0
 20
0.0
 30
0.0
  3
*U11
  1

  0
TEXT
  5
748
  8
2
 62
     0
 10
77.909423545370814
 20
106.8626306433583
 30
0.0
 40
2.5
  1
\U+2205
  0
TEXT
  5
749
  8
2
 62
     0
 10
80.409423545370814
 20
106.8626306433583
 30
0.0
 40
2.5
  1
8.5
  0
ENDBLK
  5
74B
  8
0
  0
BLOCK
  8
0
  2
*U12
 70
     1
 10
0.0
 20
0.0
 30
0.0
  3
*U12
  1

  0
TEXT
  5
74D
  8
2
 62
     0
 10
68.451090212037485
 20
102.31341867917
 30
0.0
 40
2.5
  1
\U+2205
  0
TEXT
  5
74E
  8
2
 62
     0
 10
70.951090212037485
 20
102.31341867917
 30
0.0
 40
2.5
  1
6
  0
ENDBLK
  5
750
  8
0
  0
BLOCK
  8
0
  2
*U13
 70
     1
 10
0.0
 20
0.0
 30
0.0
  3
*U13
  1

  0
TEXT
  5
752
  8
2
 62
     0
 10
78.159423545370814
 20
97.966097628783629
 30
0.0
 40
2.5
  1
\U+2205
  0
TEXT
  5
753
  8
2
 62
     0
 10
80.659423545370814
 20
97.966097628783629
 30
0.0
 40
2.5
  1
4
  0
ENDBLK
  5
755
  8
0
  0
BLOCK
  8
0
  2
*U14
 70
     1
 10
0.0
 20
0.0
 30
0.0
  3
*U14
  1

  0
TEXT
  5
757
  8
2
 62
     0
 10
67.617756878704142
 20
62.12409277681563
 30
0.0
 40
2.5
  1
\U+2205
  0
TEXT
  5
758
  8
2
 62
     0
 10
70.117756878704142
 20
62.12409277681563
 30
0.0
 40
2.5
  1
15
  0
ENDBLK
  5
75A
  8
0
  0
BLOCK
  8
0
  2
*U15
 70
     1
 10
0.0
 20
0.0
 30
0.0
  3
*U15
  1

  0
TEXT
  5
75C
  8
2
 62
     0
 10
81.884423545370794
 20
66.970353549080826
 30
0.0
 40
2.5
  1
\U+2205
  0
TEXT
  5
75D
  8
2
 62
     0
 10
84.384423545370794
 20
66.970353549080826
 30
0.0
 40
2.5
  1
7.7
  0
ENDBLK
  5
75F
  8
0
  0
BLOCK
  8
0
  2
*U16
 70
     1
 10
0.0
 20
0.0
 30
0.0
  3
*U16
  1

  0
TEXT
  5
761
  8
2
 62
     0
 10
67.617756878704142
 20
57.083029319941332
 30
0.0
 40
2.5
  1
\U+2205
  0
TEXT
  5
762
  8
2
 62
     0
 10
70.117756878704142
 20
57.083029319941332
 30
0.0
 40
2.5
  1
17
  0
ENDBLK
  5
764
  8
0
  0
ENDSEC
  0
SECTION
  2
ENTITIES
  0
TEXT
  5
126
  8
2
 10
60.544991374844017
 20
45.173392410674012
 30
0.0
 40
2.5399440000000002
  1
No. 23.015.122._
 51
-0.0000015352344868
  7
\U+00C9L\U+00C9R_\U+00C2S\U+00C2V\U+00C2B\U+00C2N
  0
LINE
  5
17B
  8
0
 39
4.1223287309999987
 10
68.534423545370814
 20
90.254954189769819
 30
0.0
 11
68.534423545370814
 21
88.254954189769819
 31
0.0
  0
LINE
  5
187
  8
0
 39
4.1223287309999987
 10
63.45906080125058
 20
74.311120887772617
 30
0.0
 11
66.376815375463593
 21
75.731242554915525
 31
0.0
  0
LINE
  5
188
  8
0
 39
4.1223287309999987
 10
66.376815375463593
 20
75.731242554915525
 30
0.0
 11
66.376815375463593
 21
75.731242554915525
 31
0.0
  0
LINE
  5
189
  8
0
 39
4.1223287309999987
 10
66.376815375463593
 20
75.731242554915525
 30
0.0
 11
66.469732665060334
 21
75.844771488167268
 31
0.0
  0
LINE
  5
18A
  8
0
 39
4.1223287309999987
 10
66.469732665060334
 20
75.844771488167268
 30
0.0
 11
66.544841494539156
 21
75.953765859814894
 31
0.0
  0
LINE
  5
18B
  8
0
 39
4.1223287309999987
 10
66.544841494539156
 20
75.953765859814894
 30
0.0
 11
66.603131222795497
 21
76.059215028753883
 31
0.0
  0
LINE
  5
18C
  8
0
 39
4.1223287309999987
 10
66.603131222795497
 20
76.059215028753883
 30
0.0
 11
66.645343869000925
 21
76.161613674431919
 31
0.0
  0
LINE
  5
18D
  8
0
 39
4.1223287309999987
 10
66.645343869000925
 20
76.161613674431919
 30
0.0
 11
66.672468792050921
 21
76.262033602319093
 31
0.0
  0
LINE
  5
18E
  8
0
 39
4.1223287309999987
 10
66.672468792050921
 20
76.262033602319093
 30
0.0
 11
66.684423545370819
 21
76.355109896024004
 31
0.0
  0
LINE
  5
190
  8
0
 39
4.1223287309999987
 10
66.684423545370819
 20
76.459080915660891
 30
0.0
 11
66.670737413983886
 21
76.557109892884071
 31
0.0
  0
LINE
  5
191
  8
0
 39
4.1223287309999987
 10
66.670737413983886
 20
76.557109892884071
 30
0.0
 11
66.645426315575548
 21
76.65604578242808
 31
0.0
  0
LINE
  5
192
  8
0
 39
4.1223287309999987
 10
66.645426315575548
 20
76.65604578242808
 30
0.0
 11
66.609067376168142
 21
76.756300817165993
 31
0.0
  0
LINE
  5
193
  8
0
 39
4.1223287309999987
 10
66.609067376168142
 20
76.756300817165993
 30
0.0
 11
66.562485061507843
 21
76.85861701626942
 31
0.0
  0
LINE
  5
194
  8
0
 39
4.1223287309999987
 10
66.562485061507843
 20
76.85861701626942
 30
0.0
 11
66.506503837340858
 21
76.963983738633772
 31
0.0
  0
LINE
  5
195
  8
0
 39
4.1223287309999987
 10
66.506503837340858
 20
76.963983738633772
 30
0.0
 11
66.442113062562626
 21
77.072813217132165
 31
0.0
  0
LINE
  5
196
  8
0
 39
4.1223287309999987
 10
66.442113062562626
 20
77.072813217132165
 30
0.0
 11
66.36988986319551
 21
77.186177257234675
 31
0.0
  0
LINE
  5
197
  8
0
 39
4.1223287309999987
 10
66.36988986319551
 20
77.186177257234675
 30
0.0
 11
66.290906044709558
 21
77.304488091814363
 31
0.0
  0
LINE
  5
198
  8
0
 39
4.1223287309999987
 10
66.290906044709558
 20
77.304488091814363
 30
0.0
 11
66.205738733127092
 21
77.42873507976671
 31
0.0
  0
LINE
  5
199
  8
0
 39
4.1223287309999987
 10
66.205738733127092
 20
77.42873507976671
 30
0.0
 11
64.027463075763706
 21
79.260393941556416
 31
0.0
  0
LINE
  5
19A
  8
0
 39
4.1223287309999987
 10
64.027463075763706
 20
79.260393941556416
 30
0.0
 11
64.027463075763706
 21
79.260393941556416
 31
0.0
  0
LINE
  5
19B
  8
0
 39
4.1223287309999987
 10
64.027463075763706
 20
79.260393941556416
 30
0.0
 11
63.907997989139339
 21
79.336409683356067
 31
0.0
  0
LINE
  5
19C
  8
0
 39
4.1223287309999987
 10
63.907997989139339
 20
79.336409683356067
 30
0.0
 11
63.804692431140467
 21
79.416877540185183
 31
0.0
  0
LINE
  5
19D
  8
0
 39
4.1223287309999987
 10
63.804692431140467
 20
79.416877540185183
 30
0.0
 11
63.718453314087952
 21
79.500973046297588
 31
0.0
  0
LINE
  5
19E
  8
0
 39
4.1223287309999987
 10
63.718453314087952
 20
79.500973046297588
 30
0.0
 11
63.64961042428024
 21
79.588696201693253
 31
0.0
  0
LINE
  5
19F
  8
0
 39
4.1223287309999987
 10
63.64961042428024
 20
79.588696201693253
 30
0.0
 11
63.598905780888948
 21
79.679140094051405
 31
0.0
  0
LINE
  5
1A0
  8
0
 39
4.1223287309999987
 10
63.598905780888948
 20
79.679140094051405
 30
0.0
 11
63.566751616787151
 21
79.772057383648146
 31
0.0
  0
LINE
  5
1A1
  8
0
 39
4.1223287309999987
 10
63.566751616787151
 20
79.772057383648146
 30
0.0
 11
63.553725057997191
 21
79.866953391035764
 31
0.0
  0
LINE
  5
1A2
  8
0
 39
4.1223287309999987
 10
63.553725057997191
 20
79.866953391035764
 30
0.0
 11
63.560485677116027
 21
79.963333436766547
 31
0.0
  0
LINE
  5
1A3
  8
0
 39
4.1223287309999987
 10
63.560485677116027
 20
79.963333436766547
 30
0.0
 11
63.587775493315249
 21
80.060620394818145
 31
0.0
  0
LINE
  5
1A4
  8
0
 39
4.1223287309999987
 10
63.587775493315249
 20
80.060620394818145
 30
0.0
 11
63.635676953169472
 21
80.158484478892078
 31
0.0
  0
LINE
  5
1A5
  8
0
 39
4.1223287309999987
 10
63.635676953169472
 20
80.158484478892078
 30
0.0
 11
63.705179415574122
 21
80.256431009540634
 31
0.0
  0
LINE
  5
1A6
  8
0
 39
4.1223287309999987
 10
63.705179415574122
 20
80.256431009540634
 30
0.0
 11
63.79661266682772
 21
80.354130200465349
 31
0.0
  0
LINE
  5
1A7
  8
0
 39
4.1223287309999987
 10
63.79661266682772
 20
80.354130200465349
 30
0.0
 11
63.910718726101777
 21
80.450922479069234
 31
0.0
  0
LINE
  5
1A8
  8
0
 39
4.1223287309999987
 10
63.910718726101777
 20
80.450922479069234
 30
0.0
 11
64.047827379694823
 21
80.546395612479188
 31
0.0
  0
LINE
  5
1A9
  8
0
 39
4.1223287309999987
 10
64.047827379694823
 20
80.546395612479188
 30
0.0
 11
64.208763093353099
 21
80.640054921247511
 31
0.0
  0
LINE
  5
1AA
  8
0
 39
4.1223287309999987
 10
64.208763093353099
 20
80.640054921247511
 30
0.0
 11
64.393855653374999
 21
80.731570619075697
 31
0.0
  0
LINE
  5
1AB
  8
0
 39
4.1223287309999987
 10
64.393855653374999
 20
80.731570619075697
 30
0.0
 11
68.534423545370814
 21
84.192512928474045
 31
0.0
  0
LINE
  5
1AC
  8
0
 39
4.1223287309999987
 10
68.534423545370814
 20
84.192512928474045
 30
0.0
 11
70.534423545370814
 21
84.192512928474045
 31
0.0
  0
LINE
  5
1B8
  8
0
 39
4.1223287309999987
 10
70.534423545370814
 20
90.254954189769819
 30
0.0
 11
66.284423545370814
 21
90.254954189769819
 31
0.0
  0
LINE
  5
1BA
  8
0
 39
4.1223287309999987
 10
66.284423545370814
 20
84.254954189769819
 30
0.0
 11
62.154218056724837
 21
80.46059964684477
 31
0.0
  0
LINE
  5
1BB
  8
0
 39
4.1223287309999987
 10
62.594788948591969
 20
80.904543532628466
 30
0.0
 11
62.594788948591969
 21
80.904543532628466
 31
0.0
  0
LINE
  5
1C0
  8
0
 39
4.1223287309999987
 10
62.154218056724837
 20
80.460599646844784
 30
0.0
 11
62.098707909103432
 21
80.346132882727204
 31
0.0
  0
LINE
  5
1C1
  8
0
 39
4.1223287309999987
 10
62.098707909103432
 20
80.346132882727204
 30
0.0
 11
62.054928777980223
 21
80.212569431842809
 31
0.0
  0
LINE
  5
1C2
  8
0
 39
4.1223287309999987
 10
62.054928777980223
 20
80.212569431842809
 30
0.0
 11
62.034423545370807
 21
80.099347848464618
 31
0.0
  0
LINE
  5
1C4
  8
0
 39
4.1223287309999987
 10
62.034423545370807
 20
79.83677196145959
 30
0.0
 11
62.038274569906982
 21
79.79819294780269
 31
0.0
  0
LINE
  5
1C5
  8
0
 39
4.1223287309999987
 10
62.038274569906982
 20
79.79819294780269
 30
0.0
 11
62.071500539478841
 21
79.661166740784239
 31
0.0
  0
LINE
  5
1C6
  8
0
 39
4.1223287309999987
 10
62.071500539478841
 20
79.661166740784239
 30
0.0
 11
62.124513686959489
 21
79.527603289899844
 31
0.0
  0
LINE
  5
1C7
  8
0
 39
4.1223287309999987
 10
62.124513686959489
 20
79.527603289899844
 30
0.0
 11
62.197396458923571
 21
79.399151526641873
 31
0.0
  0
LINE
  5
1C8
  8
0
 39
4.1223287309999987
 10
62.197396458923571
 20
79.399151526641873
 30
0.0
 11
62.239799266057567
 21
79.343727680503051
 31
0.0
  0
LINE
  5
1CC
  8
0
 39
4.1223287309999987
 10
62.239799266057652
 20
79.34372768050298
 30
0.0
 11
65.045385641925222
 21
77.103400896316174
 31
0.0
  0
LINE
  5
1CD
  8
0
 39
4.1223287309999987
 10
65.045385641925222
 20
77.103400896316174
 30
0.0
 11
65.045385641925222
 21
77.103400896316174
 31
0.0
  0
LINE
  5
1CE
  8
0
 39
4.1223287309999987
 10
65.045385641925222
 20
77.103400896316174
 30
0.0
 11
65.166252320318137
 21
77.062672288453911
 31
0.0
  0
LINE
  5
1CF
  8
0
 39
4.1223287309999987
 10
65.166252320318137
 20
77.062672288453911
 30
0.0
 11
65.274257333070324
 21
77.01501816832355
 31
0.0
  0
LINE
  5
1D0
  8
0
 39
4.1223287309999987
 10
65.274257333070324
 20
77.01501816832355
 30
0.0
 11
65.369153340457942
 21
76.961098108522066
 31
0.0
  0
LINE
  5
1D1
  8
0
 39
4.1223287309999987
 10
65.369153340457942
 20
76.961098108522066
 30
0.0
 11
65.450198323309422
 21
76.902313700818013
 31
0.0
  0
LINE
  5
1D2
  8
0
 39
4.1223287309999987
 10
65.450198323309422
 20
76.902313700818013
 30
0.0
 11
65.517144941900852
 21
76.839159624659089
 31
0.0
  0
LINE
  5
1D3
  8
0
 39
4.1223287309999987
 10
65.517144941900852
 20
76.839159624659089
 30
0.0
 11
65.569251177060693
 21
76.773202364963097
 31
0.0
  0
LINE
  5
1D4
  8
0
 39
4.1223287309999987
 10
65.569251177060693
 20
76.773202364963097
 30
0.0
 11
65.606269689065073
 21
76.705183940901591
 31
0.0
  0
LINE
  5
1D5
  8
0
 39
4.1223287309999987
 10
65.606269689065073
 20
76.705183940901591
 30
0.0
 11
65.627293565593178
 21
76.6360112647954
 31
0.0
  0
LINE
  5
1D6
  8
0
 39
4.1223287309999987
 10
65.627293565593178
 20
76.6360112647954
 30
0.0
 11
65.632322806644993
 21
76.566921035263846
 31
0.0
  0
LINE
  5
1D7
  8
0
 39
4.1223287309999987
 10
65.632322806644993
 20
76.566921035263846
 30
0.0
 11
65.620450499899704
 21
76.49882016462773
 31
0.0
  0
LINE
  5
1D8
  8
0
 39
4.1223287309999987
 10
65.620450499899704
 20
76.49882016462773
 30
0.0
 11
65.591429305633454
 21
76.432780458357115
 31
0.0
  0
LINE
  5
1D9
  8
0
 39
4.1223287309999987
 10
65.591429305633454
 20
76.432780458357115
 30
0.0
 11
65.544352311525444
 21
76.369626382198192
 31
0.0
  0
LINE
  5
1DA
  8
0
 39
4.1223287309999987
 10
65.544352311525444
 20
76.369626382198192
 30
0.0
 11
65.479219517575643
 21
76.310841974494139
 31
0.0
  0
LINE
  5
1DB
  8
0
 39
4.1223287309999987
 10
65.479219517575643
 20
76.310841974494139
 30
0.0
 11
65.395124011463253
 21
76.25692191469264
 31
0.0
  0
LINE
  5
1DC
  8
0
 39
4.1223287309999987
 10
65.395124011463253
 20
76.25692191469264
 30
0.0
 11
65.291900900039025
 21
76.20918534798767
 31
0.0
  0
LINE
  5
1DD
  8
0
 39
4.1223287309999987
 10
65.291900900039025
 20
76.20918534798767
 30
0.0
 11
65.168643270982102
 21
76.168456740125393
 31
0.0
  0
LINE
  5
1DE
  8
0
 39
4.1223287309999987
 10
65.168643270982102
 20
76.168456740125393
 30
0.0
 11
63.034423545370807
 21
74.779561744076872
 31
0.0
  0
LINE
  5
1DF
  8
0
 39
4.1223287309999987
 10
63.034423545370807
 20
74.779561744076872
 30
0.0
 11
63.509975387778979
 21
74.254954189769819
 31
0.0
  0
LINE
  5
1E0
  8
0
 39
4.1223287309999987
 10
63.509975387778979
 20
74.254954189769819
 30
0.0
 11
70.534423545370814
 21
74.254954189769819
 31
0.0
  0
LINE
  5
242
  8
0
 10
66.684423545370819
 20
76.459080915660891
 30
0.0
 11
70.534423545370814
 21
76.459080915660891
 31
0.0
  0
LINE
  5
3E6
  8
1
 10
70.534423545370814
 20
90.754954189769819
 30
0.0
 11
70.534423545370814
 21
73.754954189769805
 31
0.0
  0
LINE
  5
3E9
  8
0
 10
68.534423545370814
 20
84.192512928474045
 30
0.0
 11
68.534423545370814
 21
86.254954189769805
 31
0.0
  0
LINE
  5
3EA
  8
0
 10
67.534423545370814
 20
88.254954189769819
 30
0.0
 11
67.534423545370814
 21
86.254954189769805
 31
0.0
  0
LINE
  5
3F8
  8
0
 10
66.284423545370814
 20
90.254954189769819
 30
0.0
 11
66.284423545370814
 21
84.254954189769819
 31
0.0
  0
LINE
  5
40C
  8
0
 10
67.534423545370814
 20
88.254954189769819
 30
0.0
 11
70.534423545370814
 21
88.254954189769819
 31
0.0
  0
LINE
  5
40D
  8
0
 10
67.534423545370814
 20
86.254954189769805
 30
0.0
 11
70.534423545370814
 21
86.254954189769805
 31
0.0
  0
LINE
  5
429
  8
0
 10
62.034423545370807
 20
80.099347848464618
 30
0.0
 11
62.034423545370807
 21
79.83677196145959
 31
0.0
  0
LINE
  5
42E
  8
0
 10
63.557868121309987
 20
79.83677196145959
 30
0.0
 11
70.534423545370814
 21
79.83677196145959
 31
0.0
  0
LINE
  5
558
  8
0
 10
66.684423545370819
 20
76.355109896024004
 30
0.0
 11
66.684423545370819
 21
76.459080915660891
 31
0.0
  0
LINE
  5
5C6
  8
0
 39
4.1223287309999987
 10
77.558871702962648
 20
74.254954189769819
 30
0.0
 11
70.534423545370814
 21
74.254954189769819
 31
0.0
  0
LINE
  5
5C7
  8
0
 39
4.1223287309999987
 10
78.034423545370814
 20
74.779561744076872
 30
0.0
 11
77.558871702962648
 21
74.254954189769819
 31
0.0
  0
LINE
  5
5C8
  8
0
 39
4.1223287309999987
 10
75.900203819759525
 20
76.168456740125393
 30
0.0
 11
78.034423545370814
 21
74.779561744076872
 31
0.0
  0
LINE
  5
5C9
  8
0
 39
4.1223287309999987
 10
75.776946190702603
 20
76.20918534798767
 30
0.0
 11
75.900203819759525
 21
76.168456740125393
 31
0.0
  0
LINE
  5
5CA
  8
0
 39
4.1223287309999987
 10
75.673723079278375
 20
76.25692191469264
 30
0.0
 11
75.776946190702603
 21
76.20918534798767
 31
0.0
  0
LINE
  5
5CB
  8
0
 39
4.1223287309999987
 10
75.589627573165984
 20
76.310841974494139
 30
0.0
 11
75.673723079278375
 21
76.25692191469264
 31
0.0
  0
LINE
  5
5CC
  8
0
 39
4.1223287309999987
 10
75.52449477921617
 20
76.369626382198192
 30
0.0
 11
75.589627573165984
 21
76.310841974494139
 31
0.0
  0
LINE
  5
5CD
  8
0
 39
4.1223287309999987
 10
75.477417785108159
 20
76.432780458357115
 30
0.0
 11
75.52449477921617
 21
76.369626382198192
 31
0.0
  0
LINE
  5
5CE
  8
0
 39
4.1223287309999987
 10
75.448396590841924
 20
76.49882016462773
 30
0.0
 11
75.477417785108159
 21
76.432780458357115
 31
0.0
  0
LINE
  5
5CF
  8
0
 39
4.1223287309999987
 10
75.436524284096635
 20
76.566921035263846
 30
0.0
 11
75.448396590841924
 21
76.49882016462773
 31
0.0
  0
LINE
  5
5D0
  8
0
 39
4.1223287309999987
 10
75.44155352514845
 20
76.6360112647954
 30
0.0
 11
75.436524284096635
 21
76.566921035263846
 31
0.0
  0
LINE
  5
5D1
  8
0
 39
4.1223287309999987
 10
75.462577401676555
 20
76.705183940901591
 30
0.0
 11
75.44155352514845
 21
76.6360112647954
 31
0.0
  0
LINE
  5
5D2
  8
0
 39
4.1223287309999987
 10
75.499595913680935
 20
76.773202364963097
 30
0.0
 11
75.462577401676555
 21
76.705183940901591
 31
0.0
  0
LINE
  5
5D3
  8
0
 39
4.1223287309999987
 10
75.551702148840775
 20
76.839159624659089
 30
0.0
 11
75.499595913680935
 21
76.773202364963097
 31
0.0
  0
LINE
  5
5D4
  8
0
 39
4.1223287309999987
 10
75.618648767432205
 20
76.902313700818013
 30
0.0
 11
75.551702148840775
 21
76.839159624659089
 31
0.0
  0
LINE
  5
5D5
  8
0
 39
4.1223287309999987
 10
75.699693750283686
 20
76.961098108522066
 30
0.0
 11
75.618648767432205
 21
76.902313700818013
 31
0.0
  0
LINE
  5
5D6
  8
0
 39
4.1223287309999987
 10
75.794589757671289
 20
77.01501816832355
 30
0.0
 11
75.699693750283686
 21
76.961098108522066
 31
0.0
  0
LINE
  5
5D7
  8
0
 39
4.1223287309999987
 10
75.902594770423491
 20
77.062672288453911
 30
0.0
 11
75.794589757671289
 21
77.01501816832355
 31
0.0
  0
LINE
  5
5D8
  8
0
 39
4.1223287309999987
 10
76.023461448816406
 20
77.103400896316174
 30
0.0
 11
75.902594770423491
 21
77.062672288453911
 31
0.0
  0
LINE
  5
5D9
  8
0
 39
4.1223287309999987
 10
76.023461448816406
 20
77.103400896316174
 30
0.0
 11
76.023461448816406
 21
77.103400896316174
 31
0.0
  0
LINE
  5
5DA
  8
0
 39
4.1223287309999987
 10
78.829047824683983
 20
79.34372768050298
 30
0.0
 11
76.023461448816406
 21
77.103400896316174
 31
0.0
  0
LINE
  5
5DB
  8
0
 39
4.1223287309999987
 10
78.871450631818036
 20
79.399151526641873
 30
0.0
 11
78.829047824684054
 21
79.343727680503051
 31
0.0
  0
LINE
  5
5DC
  8
0
 39
4.1223287309999987
 10
78.944333403782124
 20
79.527603289899844
 30
0.0
 11
78.871450631818036
 21
79.399151526641873
 31
0.0
  0
LINE
  5
5DD
  8
0
 39
4.1223287309999987
 10
78.99734655126278
 20
79.661166740784239
 30
0.0
 11
78.944333403782124
 21
79.527603289899844
 31
0.0
  0
LINE
  5
5DE
  8
0
 39
4.1223287309999987
 10
79.030572520834653
 20
79.79819294780269
 30
0.0
 11
78.99734655126278
 21
79.661166740784239
 31
0.0
  0
LINE
  5
5DF
  8
0
 39
4.1223287309999987
 10
79.034423545370814
 20
79.83677196145959
 30
0.0
 11
79.030572520834653
 21
79.79819294780269
 31
0.0
  0
LINE
  5
5E0
  8
0
 39
4.1223287309999987
 10
79.013918312761405
 20
80.212569431842809
 30
0.0
 11
79.034423545370814
 21
80.099347848464618
 31
0.0
  0
LINE
  5
5E1
  8
0
 39
4.1223287309999987
 10
78.970139181638189
 20
80.346132882727204
 30
0.0
 11
79.013918312761405
 21
80.212569431842809
 31
0.0
  0
LINE
  5
5E2
  8
0
 39
4.1223287309999987
 10
78.914629034016798
 20
80.460599646844784
 30
0.0
 11
78.970139181638189
 21
80.346132882727204
 31
0.0
  0
LINE
  5
5E3
  8
0
 39
4.1223287309999987
 10
78.474058142149644
 20
80.904543532628466
 30
0.0
 11
78.474058142149644
 21
80.904543532628466
 31
0.0
  0
LINE
  5
5E4
  8
0
 39
4.1223287309999987
 10
74.784423545370814
 20
84.254954189769819
 30
0.0
 11
78.914629034016798
 21
80.46059964684477
 31
0.0
  0
LINE
  5
5E5
  8
0
 39
4.1223287309999987
 10
70.534423545370814
 20
90.254954189769819
 30
0.0
 11
74.784423545370814
 21
90.254954189769819
 31
0.0
  0
LINE
  5
5E6
  8
0
 39
4.1223287309999987
 10
72.534423545370814
 20
84.192512928474045
 30
0.0
 11
70.534423545370814
 21
84.192512928474045
 31
0.0
  0
LINE
  5
5E7
  8
0
 39
4.1223287309999987
 10
76.674991437366614
 20
80.731570619075697
 30
0.0
 11
72.534423545370814
 21
84.192512928474045
 31
0.0
  0
LINE
  5
5E8
  8
0
 39
4.1223287309999987
 10
76.860083997388514
 20
80.640054921247511
 30
0.0
 11
76.674991437366614
 21
80.731570619075697
 31
0.0
  0
LINE
  5
5E9
  8
0
 39
4.1223287309999987
 10
77.02101971104679
 20
80.546395612479188
 30
0.0
 11
76.860083997388514
 21
80.640054921247511
 31
0.0
  0
LINE
  5
5EA
  8
0
 39
4.1223287309999987
 10
77.15812836463985
 20
80.450922479069234
 30
0.0
 11
77.02101971104679
 21
80.546395612479188
 31
0.0
  0
LINE
  5
5EB
  8
0
 39
4.1223287309999987
 10
77.272234423913915
 20
80.354130200465349
 30
0.0
 11
77.15812836463985
 21
80.450922479069234
 31
0.0
  0
LINE
  5
5EC
  8
0
 39
4.1223287309999987
 10
77.363667675167505
 20
80.256431009540634
 30
0.0
 11
77.272234423913915
 21
80.354130200465349
 31
0.0
  0
LINE
  5
5ED
  8
0
 39
4.1223287309999987
 10
77.433170137572148
 20
80.158484478892078
 30
0.0
 11
77.363667675167505
 21
80.256431009540634
 31
0.0
  0
LINE
  5
5EE
  8
0
 39
4.1223287309999987
 10
77.481071597426364
 20
80.060620394818145
 30
0.0
 11
77.433170137572148
 21
80.158484478892078
 31
0.0
  0
LINE
  5
5EF
  8
0
 39
4.1223287309999987
 10
77.508361413625593
 20
79.963333436766547
 30
0.0
 11
77.481071597426364
 21
80.060620394818145
 31
0.0
  0
LINE
  5
5F0
  8
0
 39
4.1223287309999987
 10
77.515122032744443
 20
79.866953391035764
 30
0.0
 11
77.508361413625593
 21
79.963333436766547
 31
0.0
  0
LINE
  5
5F1
  8
0
 39
4.1223287309999987
 10
77.502095473954469
 20
79.772057383648146
 30
0.0
 11
77.515122032744443
 21
79.866953391035764
 31
0.0
  0
LINE
  5
5F2
  8
0
 39
4.1223287309999987
 10
77.469941309852672
 20
79.679140094051405
 30
0.0
 11
77.502095473954469
 21
79.772057383648146
 31
0.0
  0
LINE
  5
5F3
  8
0
 39
4.1223287309999987
 10
77.419236666461387
 20
79.588696201693253
 30
0.0
 11
77.469941309852672
 21
79.679140094051405
 31
0.0
  0
LINE
  5
5F4
  8
0
 39
4.1223287309999987
 10
77.350393776653675
 20
79.500973046297588
 30
0.0
 11
77.419236666461387
 21
79.588696201693253
 31
0.0
  0
LINE
  5
5F5
  8
0
 39
4.1223287309999987
 10
77.264154659601161
 20
79.416877540185183
 30
0.0
 11
77.350393776653675
 21
79.500973046297588
 31
0.0
  0
LINE
  5
5F6
  8
0
 39
4.1223287309999987
 10
77.160849101602281
 20
79.336409683356067
 30
0.0
 11
77.264154659601161
 21
79.416877540185183
 31
0.0
  0
LINE
  5
5F7
  8
0
 39
4.1223287309999987
 10
77.041384014977922
 20
79.260393941556416
 30
0.0
 11
77.160849101602281
 21
79.336409683356067
 31
0.0
  0
LINE
  5
5F8
  8
0
 39
4.1223287309999987
 10
77.041384014977922
 20
79.260393941556416
 30
0.0
 11
77.041384014977922
 21
79.260393941556416
 31
0.0
  0
LINE
  5
5F9
  8
0
 39
4.1223287309999987
 10
74.863108357614536
 20
77.42873507976671
 30
0.0
 11
77.041384014977922
 21
79.260393941556416
 31
0.0
  0
LINE
  5
5FA
  8
0
 39
4.1223287309999987
 10
74.777941046032069
 20
77.304488091814363
 30
0.0
 11
74.863108357614536
 21
77.42873507976671
 31
0.0
  0
LINE
  5
5FB
  8
0
 39
4.1223287309999987
 10
74.698957227546103
 20
77.186177257234675
 30
0.0
 11
74.777941046032069
 21
77.304488091814363
 31
0.0
  0
LINE
  5
5FC
  8
0
 39
4.1223287309999987
 10
74.626734028179001
 20
77.072813217132165
 30
0.0
 11
74.698957227546103
 21
77.186177257234675
 31
0.0
  0
LINE
  5
5FD
  8
0
 39
4.1223287309999987
 10
74.562343253400755
 20
76.963983738633772
 30
0.0
 11
74.626734028179001
 21
77.072813217132165
 31
0.0
  0
LINE
  5
5FE
  8
0
 39
4.1223287309999987
 10
74.506362029233784
 20
76.85861701626942
 30
0.0
 11
74.562343253400755
 21
76.963983738633772
 31
0.0
  0
LINE
  5
5FF
  8
0
 39
4.1223287309999987
 10
74.459779714573486
 20
76.756300817165993
 30
0.0
 11
74.506362029233784
 21
76.85861701626942
 31
0.0
  0
LINE
  5
600
  8
0
 39
4.1223287309999987
 10
74.423420775166079
 20
76.65604578242808
 30
0.0
 11
74.459779714573486
 21
76.756300817165993
 31
0.0
  0
LINE
  5
601
  8
0
 39
4.1223287309999987
 10
74.398109676757741
 20
76.557109892884071
 30
0.0
 11
74.423420775166079
 21
76.65604578242808
 31
0.0
  0
LINE
  5
602
  8
0
 39
4.1223287309999987
 10
74.384423545370794
 20
76.459080915660891
 30
0.0
 11
74.398109676757741
 21
76.557109892884071
 31
0.0
  0
LINE
  5
603
  8
0
 39
4.1223287309999987
 10
74.396378298690706
 20
76.262033602319093
 30
0.0
 11
74.384423545370794
 21
76.355109896024004
 31
0.0
  0
LINE
  5
604
  8
0
 39
4.1223287309999987
 10
74.423503221740702
 20
76.161613674431919
 30
0.0
 11
74.396378298690706
 21
76.262033602319093
 31
0.0
  0
LINE
  5
605
  8
0
 39
4.1223287309999987
 10
74.46571586794613
 20
76.059215028753883
 30
0.0
 11
74.423503221740702
 21
76.161613674431919
 31
0.0
  0
LINE
  5
606
  8
0
 39
4.1223287309999987
 10
74.524005596202471
 20
75.953765859814894
 30
0.0
 11
74.46571586794613
 21
76.059215028753883
 31
0.0
  0
LINE
  5
607
  8
0
 39
4.1223287309999987
 10
74.599114425681293
 20
75.844771488167268
 30
0.0
 11
74.524005596202471
 21
75.953765859814894
 31
0.0
  0
LINE
  5
608
  8
0
 39
4.1223287309999987
 10
74.692031715278006
 20
75.731242554915525
 30
0.0
 11
74.599114425681293
 21
75.844771488167268
 31
0.0
  0
LINE
  5
609
  8
0
 39
4.1223287309999987
 10
74.692031715278006
 20
75.731242554915525
 30
0.0
 11
74.692031715278006
 21
75.731242554915525
 31
0.0
  0
LINE
  5
60A
  8
0
 39
4.1223287309999987
 10
77.609786289491041
 20
74.311120887772617
 30
0.0
 11
74.692031715278006
 21
75.731242554915525
 31
0.0
  0
LINE
  5
60B
  8
0
 39
4.1223287309999987
 10
72.534423545370814
 20
90.254954189769819
 30
0.0
 11
72.534423545370814
 21
88.254954189769819
 31
0.0
  0
LINE
  5
60C
  8
0
 10
74.384423545370794
 20
76.355109896024004
 30
0.0
 11
74.384423545370794
 21
76.459080915660891
 31
0.0
  0
LINE
  5
60D
  8
0
 10
74.384423545370794
 20
76.459080915660891
 30
0.0
 11
70.534423545370814
 21
76.459080915660891
 31
0.0
  0
LINE
  5
60E
  8
0
 10
79.034423545370814
 20
80.099347848464618
 30
0.0
 11
79.034423545370814
 21
79.83677196145959
 31
0.0
  0
LINE
  5
60F
  8
0
 10
74.784423545370814
 20
90.254954189769819
 30
0.0
 11
74.784423545370814
 21
84.254954189769819
 31
0.0
  0
LINE
  5
610
  8
0
 10
72.534423545370814
 20
84.192512928474045
 30
0.0
 11
72.534423545370814
 21
86.254954189769805
 31
0.0
  0
LINE
  5
611
  8
0
 10
77.510978969431633
 20
79.83677196145959
 30
0.0
 11
70.534423545370814
 21
79.83677196145959
 31
0.0
  0
LINE
  5
612
  8
0
 10
73.534423545370814
 20
86.254954189769805
 30
0.0
 11
70.534423545370814
 21
86.254954189769805
 31
0.0
  0
LINE
  5
613
  8
0
 10
73.534423545370814
 20
88.254954189769819
 30
0.0
 11
70.534423545370814
 21
88.254954189769819
 31
0.0
  0
LINE
  5
614
  8
0
 10
73.534423545370814
 20
88.254954189769819
 30
0.0
 11
73.534423545370814
 21
86.254954189769805
 31
0.0
  0
DIMENSION
  5
619
  8
2
  2
*D1
 10
72.534423545370814
 20
97.341097628783629
 30
0.0
 11
80.242756878704142
 21
99.216097628783629
 31
0.0
 70
     0
  1
%%c<>
 13
68.534423545370814
 23
90.254954189769819
 33
0.0
 14
72.534423545370814
 24
90.254954189769819
 34
0.0
  0
DIMENSION
  5
628
  8
2
  2
*D2
 10
73.534423545370814
 20
101.68841867917
 30
0.0
 11
70.534423545370814
 21
103.56341867917
 31
0.0
 70
     0
  1
%%c<>
 13
67.534423545370814
 23
88.254954189769819
 33
0.0
 14
73.534423545370814
 24
88.254954189769819
 34
0.0
  0
DIMENSION
  5
637
  8
2
  2
*D3
 10
74.784423545370814
 20
106.2376306433583
 30
0.0
 11
81.659423545370814
 21
108.1126306433583
 31
0.0
 70
     0
  1
%%c<>
 13
66.284423545370814
 23
90.254954189769819
 33
0.0
 14
74.784423545370814
 24
90.254954189769819
 34
0.0
  0
DIMENSION
  5
644
  8
2
  2
*D4
 10
86.627765758564067
 20
88.254954189769819
 30
0.0
 11
84.752765758564053
 21
81.796620856436505
 31
0.0
 70
     0
 13
74.784423545370814
 23
90.254954189769819
 33
0.0
 14
73.534423545370814
 24
88.254954189769819
 34
0.0
 50
90.0
  0
DIMENSION
  5
653
  8
2
  2
*D5
 10
92.496100317465263
 20
86.254954189769805
 30
0.0
 11
90.621100317465249
 21
88.254954189769819
 31
0.0
 70
     0
 13
75.409423545370814
 23
90.254954189769819
 33
0.0
 14
73.534423545370814
 24
86.254954189769805
 34
0.0
 50
90.0
  0
DIMENSION
  5
662
  8
2
  2
*D6
 10
98.359743600615218
 20
74.254954189769805
 30
0.0
 11
96.484743600615204
 21
82.254954189769833
 31
0.0
 70
     0
 13
74.784423545370814
 23
90.254954189769819
 33
0.0
 14
77.558871702962648
 24
74.254954189769819
 34
0.0
 50
90.0
1001
ACAD
1000
DSTYLE
1002
{
1070
   271
1070
     6
1002
}
  0
DIMENSION
  5
679
  8
2
  2
*D7
 10
56.321802155919897
 20
84.254954189769819
 30
0.0
 11
54.446802155919883
 21
79.254954189769833
 31
0.0
 70
     0
 13
63.509975387778979
 23
74.254954189769819
 33
0.0
 14
66.284423545370814
 24
84.254954189769819
 34
0.0
 50
90.0
1001
ACAD
1000
DSTYLE
1002
{
1070
   271
1070
     6
1002
}
  0
DIMENSION
  5
690
  8
2
  2
*D8
 10
74.384423545370794
 20
66.345353549080826
 30
0.0
 11
85.634423545370794
 21
66.345353549080826
 31
0.0
 70
   128
  1
%%c<>
 13
66.684423545370819
 23
76.459080915660891
 33
0.0
 14
74.384423545370794
 24
76.459080915660891
 34
0.0
1001
ACAD
1000
DSTYLE
1002
{
1070
   271
1070
     6
1002
}
  0
DIMENSION
  5
69D
  8
2
  2
*D9
 10
78.034423545370814
 20
61.49909277681563
 30
0.0
 11
70.534423545370814
 21
63.37409277681563
 31
0.0
 70
     0
  1
%%c<>
 13
63.034423545370807
 23
74.779561744076872
 33
0.0
 14
78.034423545370814
 24
74.779561744076872
 34
0.0
1001
ACAD
1000
DSTYLE
1002
{
1070
   271
1070
     6
1002
}
  0
DIMENSION
  5
6AA
  8
2
  2
*D10
 10
79.034423545370814
 20
56.458029319941332
 30
0.0
 11
70.534423545370814
 21
58.333029319941332
 31
0.0
 70
     0
  1
%%c<>
 13
62.034423545370807
 23
80.099347848464618
 33
0.0
 14
79.034423545370814
 24
80.099347848464618
 34
0.0
1001
ACAD
1000
DSTYLE
1002
{
1070
   271
1070
     6
1002
}
  0
ENDSEC
  0
EOF
