  0
SECTION
  2
HEADER
  9
$ACADVER
  1
AC1009
  9
$INSBASE
 10
0.0
 20
0.0
 30
0.0
  9
$EXTMIN
 10
72.824096151615862
 20
25.59794896039266
 30
0.0
  9
$EXTMAX
 10
115.1660616906687
 20
86.39316848316443
 30
3.262600162
  9
$LIMMIN
 10
0.0
 20
0.0
  9
$LIMMAX
 10
420.0
 20
297.0
  9
$ORTHOMODE
 70
     0
  9
$REGENMODE
 70
     1
  9
$FILLMODE
 70
     1
  9
$QTEXTMODE
 70
     0
  9
$MIRRTEXT
 70
     1
  9
$DRAGMODE
 70
     2
  9
$LTSCALE
 40
0.3
  9
$OSMODE
 70
    37
  9
$ATTMODE
 70
     1
  9
$TEXTSIZE
 40
2.5
  9
$TRACEWID
 40
1.0
  9
$TEXTSTYLE
  7
STANDARD
  9
$CLAYER
  8
2
  9
$CELTYPE
  6
BYLAYER
  9
$CECOLOR
 62
   256
  9
$DIMSCALE
 40
1.0
  9
$DIMASZ
 40
2.5
  9
$DIMEXO
 40
0.625
  9
$DIMDLI
 40
3.75
  9
$DIMRND
 40
0.0
  9
$DIMDLE
 40
0.0
  9
$DIMEXE
 40
1.25
  9
$DIMTP
 40
0.0
  9
$DIMTM
 40
0.0
  9
$DIMTXT
 40
2.5
  9
$DIMCEN
 40
2.5
  9
$DIMTSZ
 40
0.0
  9
$DIMTOL
 70
     0
  9
$DIMLIM
 70
     0
  9
$DIMTIH
 70
     0
  9
$DIMTOH
 70
     0
  9
$DIMSE1
 70
     0
  9
$DIMSE2
 70
     0
  9
$DIMTAD
 70
     1
  9
$DIMZIN
 70
     8
  9
$DIMBLK
  1

  9
$DIMASO
 70
     1
  9
$DIMSHO
 70
     1
  9
$DIMPOST
  1

  9
$DIMAPOST
  1

  9
$DIMALT
 70
     0
  9
$DIMALTD
 70
     3
  9
$DIMALTF
 40
0.03937007874016
  9
$DIMLFAC
 40
1.0
  9
$DIMTOFL
 70
     1
  9
$DIMTVP
 40
0.0
  9
$DIMTIX
 70
     0
  9
$DIMSOXD
 70
     0
  9
$DIMSAH
 70
     0
  9
$DIMBLK1
  1

  9
$DIMBLK2
  1

  9
$DIMSTYLE
  2
ISO-25
  9
$DIMCLRD
 70
     0
  9
$DIMCLRE
 70
     0
  9
$DIMCLRT
 70
     0
  9
$DIMTFAC
 40
1.0
  9
$DIMGAP
 40
0.625
  9
$LUNITS
 70
     2
  9
$LUPREC
 70
     4
  9
$SKETCHINC
 40
1.0
  9
$FILLETRAD
 40
10.0
  9
$AUNITS
 70
     0
  9
$AUPREC
 70
     0
  9
$MENU
  1
.
  9
$ELEVATION
 40
0.0
  9
$PELEVATION
 40
0.0
  9
$THICKNESS
 40
0.0
  9
$LIMCHECK
 70
     0
  9
$BLIPMODE
 70
     0
  9
$CHAMFERA
 40
10.0
  9
$CHAMFERB
 40
10.0
  9
$SKPOLY
 70
     0
  9
$TDCREATE
 40
2453439.4433907871
  9
$TDUPDATE
 40
2453551.9096753821
  9
$TDINDWG
 40
0.0333998958
  9
$TDUSRTIMER
 40
0.0333998958
  9
$USRTIMER
 70
     1
  9
$ANGBASE
 50
0.0
  9
$ANGDIR
 70
     0
  9
$PDMODE
 70
     0
  9
$PDSIZE
 40
0.0
  9
$PLINEWID
 40
0.0
  9
$COORDS
 70
     1
  9
$SPLFRAME
 70
     0
  9
$SPLINETYPE
 70
     6
  9
$SPLINESEGS
 70
     8
  9
$ATTDIA
 70
     0
  9
$ATTREQ
 70
     1
  9
$HANDLING
 70
-16383
  9
$HANDSEED
  5
6CA
  9
$SURFTAB1
 70
     6
  9
$SURFTAB2
 70
     6
  9
$SURFTYPE
 70
     6
  9
$SURFU
 70
     6
  9
$SURFV
 70
     6
  9
$UCSNAME
  2

  9
$UCSORG
 10
0.0
 20
0.0
 30
0.0
  9
$UCSXDIR
 10
1.0
 20
0.0
 30
0.0
  9
$UCSYDIR
 10
0.0
 20
1.0
 30
0.0
  9
$PUCSNAME
  2

  9
$PUCSORG
 10
0.0
 20
0.0
 30
0.0
  9
$PUCSXDIR
 10
1.0
 20
0.0
 30
0.0
  9
$PUCSYDIR
 10
0.0
 20
1.0
 30
0.0
  9
$USERI1
 70
     0
  9
$USERI2
 70
     0
  9
$USERI3
 70
     0
  9
$USERI4
 70
     0
  9
$USERI5
 70
     0
  9
$USERR1
 40
0.0
  9
$USERR2
 40
0.0
  9
$USERR3
 40
0.0
  9
$USERR4
 40
0.0
  9
$USERR5
 40
0.0
  9
$WORLDVIEW
 70
     1
  9
$SHADEDGE
 70
     3
  9
$SHADEDIF
 70
    70
  9
$TILEMODE
 70
     1
  9
$MAXACTVP
 70
    64
  9
$PLIMCHECK
 70
     0
  9
$PEXTMIN
 10
1.0000000000000000E+020
 20
1.0000000000000000E+020
 30
1.0000000000000000E+020
  9
$PEXTMAX
 10
-1.0000000000000000E+020
 20
-1.0000000000000000E+020
 30
-1.0000000000000000E+020
  9
$PLIMMIN
 10
0.0
 20
0.0
  9
$PLIMMAX
 10
420.0
 20
297.0
  9
$UNITMODE
 70
     0
  9
$VISRETAIN
 70
     1
  9
$PLINEGEN
 70
     0
  9
$PSLTSCALE
 70
     1
  0
ENDSEC
  0
SECTION
  2
TABLES
  0
TABLE
  2
VPORT
 70
     2
  0
VPORT
  2
*ACTIVE
 70
     0
 10
0.0
 20
0.0
 11
1.0
 21
1.0
 12
110.4348106766797
 22
52.797170974049308
 13
0.0
 23
0.0
 14
10.0
 24
10.0
 15
10.0
 25
10.0
 16
0.0
 26
0.0
 36
1.0
 17
0.0
 27
0.0
 37
0.0
 40
68.805158696113125
 41
2.5392405063291141
 42
50.0
 43
0.0
 44
0.0
 50
0.0
 51
0.0
 71
     0
 72
   100
 73
     1
 74
     3
 75
     0
 76
     0
 77
     0
 78
     0
  0
ENDTAB
  0
TABLE
  2
LTYPE
 70
     2
  0
LTYPE
  2
CONTINUOUS
 70
     0
  3
Solid line
 72
    65
 73
     0
 40
0.0
  0
LTYPE
  2
CENTER
 70
     0
  3
Center ____ _ ____ _ ____ _ ____ _ ____ _ ____
 72
    65
 73
     4
 40
50.799999999999997
 49
31.75
 49
-6.3499999999999988
 49
6.3499999999999988
 49
-6.3499999999999988
  0
ENDTAB
  0
TABLE
  2
LAYER
 70
     4
  0
LAYER
  2
0
 70
     0
 62
     7
  6
CONTINUOUS
  0
LAYER
  2
1
 70
     0
 62
     7
  6
CENTER
  0
LAYER
  2
2
 70
     0
 62
     7
  6
CONTINUOUS
  0
LAYER
  2
DEFPOINTS
 70
     0
 62
     7
  6
CONTINUOUS
  0
ENDTAB
  0
TABLE
  2
STYLE
 70
     3
  0
STYLE
  2
STANDARD
 70
     0
 40
0.0
 41
1.0
 50
0.0
 71
     0
 42
2.5
  3
txt
  4

  0
STYLE
  2
\U+00C9L\U+00C9R_\U+00C2S\U+00C2V\U+00C2B\U+00C2N
 70
     0
 40
1.0
 41
1.0
 50
0.0
 71
     0
 42
1.0
  3
\U+00E9l\U+00E9r \U+00E2S\U+00E2V\U+00E2b\U+00E2N
  4

  0
STYLE
  2

 70
     1
 40
0.0
 41
1.0
 50
0.0
 71
     0
 42
2.5
  3
ltypeshp.shx
  4

  0
ENDTAB
  0
TABLE
  2
VIEW
 70
     0
  0
ENDTAB
  0
TABLE
  2
UCS
 70
     0
  0
ENDTAB
  0
TABLE
  2
APPID
 70
     1
  0
APPID
  2
ACAD
 70
     0
  0
ENDTAB
  0
TABLE
  2
DIMSTYLE
 70
     2
  0
DIMSTYLE
  2
ISO-25
 70
     0
  3

  4

  5

  6

  7

 40
1.0
 41
2.5
 42
0.625
 43
3.75
 44
1.25
 45
0.0
 46
0.0
 47
0.0
 48
0.0
140
2.5
141
2.5
142
0.0
143
0.03937007874016
144
1.0
145
0.0
146
1.0
147
0.625
 71
     0
 72
     0
 73
     0
 74
     0
 75
     0
 76
     0
 77
     1
 78
     8
170
     0
171
     3
172
     1
173
     0
174
     0
175
     0
176
     0
177
     0
178
     0
  0
DIMSTYLE
  2
STANDARD
 70
     0
  3

  4

  5

  6

  7

 40
1.0
 41
0.18
 42
0.0625
 43
0.38
 44
0.18
 45
0.0
 46
0.0
 47
0.0
 48
0.0
140
0.18
141
0.09
142
0.0
143
25.399999999999999
144
1.0
145
0.0
146
1.0
147
0.09
 71
     0
 72
     0
 73
     1
 74
     1
 75
     0
 76
     0
 77
     0
 78
     0
170
     0
171
     2
172
     0
173
     0
174
     0
175
     0
176
     0
177
     0
178
     0
  0
ENDTAB
  0
ENDSEC
  0
SECTION
  2
BLOCKS
  0
BLOCK
  8
0
  2
$MODEL_SPACE
 70
     0
 10
0.0
 20
0.0
 30
0.0
  3
$MODEL_SPACE
  1

  0
ENDBLK
  5
21
  8
0
  0
BLOCK
 67
     1
  8
0
  2
$PAPER_SPACE
 70
     0
 10
0.0
 20
0.0
 30
0.0
  3
$PAPER_SPACE
  1

  0
ENDBLK
  5
1D
 67
     1
  8
0
  0
BLOCK
  8
0
  2
*D1
 70
     1
 10
0.0
 20
0.0
 30
0.0
  3
*D1
  1

  0
LINE
  5
658
  8
2
 62
     0
 10
87.849648025398054
 20
62.923747170415083
 30
0.0
 11
87.849648025398054
 21
73.255283225376672
 31
0.0
  0
LINE
  5
659
  8
2
 62
     0
 10
89.849648025398054
 20
62.923747170415083
 30
0.0
 11
89.849648025398054
 21
73.255283225376672
 31
0.0
  0
LINE
  5
65A
  8
2
 62
     0
 10
85.349648025398054
 20
72.005283225376672
 30
0.0
 11
82.849648025398054
 21
72.005283225376672
 31
0.0
  0
LINE
  5
65B
  8
2
 62
     0
 10
92.349648025398054
 20
72.005283225376672
 30
0.0
 11
100.2663146920647
 21
72.005283225376672
 31
0.0
  0
LINE
  5
65C
  8
2
 62
     0
 10
87.849648025398054
 20
72.005283225376672
 30
0.0
 11
89.849648025398054
 21
72.005283225376672
 31
0.0
  0
SOLID
  5
65D
  8
2
 62
     0
 10
85.349648025398054
 20
72.421949892043344
 30
0.0
 11
85.349648025398054
 21
71.588616558710001
 31
0.0
 12
87.849648025398054
 22
72.005283225376672
 32
0.0
 13
87.849648025398054
 23
72.005283225376672
 33
0.0
  0
SOLID
  5
65E
  8
2
 62
     0
 10
92.349648025398054
 20
72.421949892043344
 30
0.0
 11
92.349648025398054
 21
71.588616558710001
 31
0.0
 12
89.849648025398054
 22
72.005283225376672
 32
0.0
 13
89.849648025398054
 23
72.005283225376672
 33
0.0
  0
INSERT
  5
65F
  8
2
  2
*U15
 10
0.0
 20
0.0
 30
0.0
  0
POINT
  5
660
  8
DEFPOINTS
 62
     0
 10
87.849648025398054
 20
62.298747170415083
 30
0.0
  0
POINT
  5
661
  8
DEFPOINTS
 62
     0
 10
89.849648025398054
 20
62.298747170415083
 30
0.0
  0
POINT
  5
662
  8
DEFPOINTS
 62
     0
 10
89.849648025398054
 20
72.005283225376672
 30
0.0
  0
ENDBLK
  5
54C
  8
0
  0
BLOCK
  8
0
  2
*D2
 70
     1
 10
0.0
 20
0.0
 30
0.0
  3
*D2
  1

  0
LINE
  5
64D
  8
2
 62
     0
 10
86.849648025398054
 20
66.923747170415083
 30
0.0
 11
86.849648025398054
 21
76.86945596543535
 31
0.0
  0
LINE
  5
64E
  8
2
 62
     0
 10
90.849648025398054
 20
66.923747170415083
 30
0.0
 11
90.849648025398054
 21
76.86945596543535
 31
0.0
  0
LINE
  5
64F
  8
2
 62
     0
 10
84.349648025398054
 20
75.61945596543535
 30
0.0
 11
81.849648025398054
 21
75.61945596543535
 31
0.0
  0
LINE
  5
650
  8
2
 62
     0
 10
93.349648025398054
 20
75.61945596543535
 30
0.0
 11
101.2663146920647
 21
75.61945596543535
 31
0.0
  0
LINE
  5
651
  8
2
 62
     0
 10
86.849648025398054
 20
75.61945596543535
 30
0.0
 11
90.849648025398054
 21
75.61945596543535
 31
0.0
  0
SOLID
  5
652
  8
2
 62
     0
 10
84.349648025398054
 20
76.036122632102021
 30
0.0
 11
84.349648025398054
 21
75.202789298768678
 31
0.0
 12
86.849648025398054
 22
75.61945596543535
 32
0.0
 13
86.849648025398054
 23
75.61945596543535
 33
0.0
  0
SOLID
  5
653
  8
2
 62
     0
 10
93.349648025398054
 20
76.036122632102021
 30
0.0
 11
93.349648025398054
 21
75.202789298768678
 31
0.0
 12
90.849648025398054
 22
75.61945596543535
 32
0.0
 13
90.849648025398054
 23
75.61945596543535
 33
0.0
  0
INSERT
  5
654
  8
2
  2
*U14
 10
0.0
 20
0.0
 30
0.0
  0
POINT
  5
655
  8
DEFPOINTS
 62
     0
 10
86.849648025398054
 20
66.298747170415083
 30
0.0
  0
POINT
  5
656
  8
DEFPOINTS
 62
     0
 10
90.849648025398054
 20
66.298747170415083
 30
0.0
  0
POINT
  5
657
  8
DEFPOINTS
 62
     0
 10
90.849648025398054
 20
75.61945596543535
 30
0.0
  0
ENDBLK
  5
55B
  8
0
  0
BLOCK
  8
0
  2
*D3
 70
     1
 10
0.0
 20
0.0
 30
0.0
  3
*D3
  1

  0
LINE
  5
642
  8
2
 62
     0
 10
85.849648025398054
 20
64.923747170415083
 30
0.0
 11
85.849648025398054
 21
80.834129684702447
 31
0.0
  0
LINE
  5
643
  8
2
 62
     0
 10
91.849648025398054
 20
64.923747170415083
 30
0.0
 11
91.849648025398054
 21
80.834129684702447
 31
0.0
  0
LINE
  5
644
  8
2
 62
     0
 10
83.349648025398054
 20
79.584129684702447
 30
0.0
 11
80.849648025398054
 21
79.584129684702447
 31
0.0
  0
LINE
  5
645
  8
2
 62
     0
 10
94.349648025398054
 20
79.584129684702447
 30
0.0
 11
96.849648025398054
 21
79.584129684702447
 31
0.0
  0
LINE
  5
646
  8
2
 62
     0
 10
85.849648025398054
 20
79.584129684702447
 30
0.0
 11
91.849648025398054
 21
79.584129684702447
 31
0.0
  0
SOLID
  5
647
  8
2
 62
     0
 10
83.349648025398054
 20
80.000796351369104
 30
0.0
 11
83.349648025398054
 21
79.167463018035775
 31
0.0
 12
85.849648025398054
 22
79.584129684702447
 32
0.0
 13
85.849648025398054
 23
79.584129684702447
 33
0.0
  0
SOLID
  5
648
  8
2
 62
     0
 10
94.349648025398054
 20
80.000796351369104
 30
0.0
 11
94.349648025398054
 21
79.167463018035775
 31
0.0
 12
91.849648025398054
 22
79.584129684702447
 32
0.0
 13
91.849648025398054
 23
79.584129684702447
 33
0.0
  0
INSERT
  5
649
  8
2
  2
*U13
 10
0.0
 20
0.0
 30
0.0
  0
POINT
  5
64A
  8
DEFPOINTS
 62
     0
 10
85.849648025398054
 20
64.298747170415083
 30
0.0
  0
POINT
  5
64B
  8
DEFPOINTS
 62
     0
 10
91.849648025398054
 20
64.298747170415083
 30
0.0
  0
POINT
  5
64C
  8
DEFPOINTS
 62
     0
 10
91.849648025398054
 20
79.584129684702447
 30
0.0
  0
ENDBLK
  5
56A
  8
0
  0
BLOCK
  8
0
  2
*D4
 70
     1
 10
0.0
 20
0.0
 30
0.0
  3
*D4
  1

  0
LINE
  5
638
  8
2
 62
     0
 10
84.599648025398054
 20
66.923747170415083
 30
0.0
 11
84.599648025398054
 21
84.518168483164402
 31
0.0
  0
LINE
  5
639
  8
2
 62
     0
 10
93.099648025398054
 20
66.923747170415083
 30
0.0
 11
93.099648025398054
 21
84.518168483164402
 31
0.0
  0
LINE
  5
63A
  8
2
 62
     0
 10
87.099648025398054
 20
83.268168483164402
 30
0.0
 11
90.599648025398054
 21
83.268168483164402
 31
0.0
  0
LINE
  5
63B
  8
2
 62
     0
 10
93.099648025398054
 20
83.268168483164402
 30
0.0
 11
104.349648025398
 21
83.268168483164402
 31
0.0
  0
SOLID
  5
63C
  8
2
 62
     0
 10
87.099648025398054
 20
83.684835149831073
 30
0.0
 11
87.099648025398054
 21
82.851501816497745
 31
0.0
 12
84.599648025398054
 22
83.268168483164402
 32
0.0
 13
84.599648025398054
 23
83.268168483164402
 33
0.0
  0
SOLID
  5
63D
  8
2
 62
     0
 10
90.599648025398054
 20
83.684835149831073
 30
0.0
 11
90.599648025398054
 21
82.851501816497745
 31
0.0
 12
93.099648025398054
 22
83.268168483164402
 32
0.0
 13
93.099648025398054
 23
83.268168483164402
 33
0.0
  0
INSERT
  5
63E
  8
2
  2
*U12
 10
0.0
 20
0.0
 30
0.0
  0
POINT
  5
63F
  8
DEFPOINTS
 62
     0
 10
84.599648025398054
 20
66.298747170415083
 30
0.0
  0
POINT
  5
640
  8
DEFPOINTS
 62
     0
 10
93.099648025398054
 20
66.298747170415083
 30
0.0
  0
POINT
  5
641
  8
DEFPOINTS
 62
     0
 10
93.099648025398054
 20
83.268168483164402
 30
0.0
  0
ENDBLK
  5
57C
  8
0
  0
BLOCK
  8
0
  2
*D5
 70
     1
 10
0.0
 20
0.0
 30
0.0
  3
*D5
  1

  0
LINE
  5
57F
  8
2
 62
     0
 10
93.724648025398054
 20
66.298747170415083
 30
0.0
 11
105.2548694283861
 21
66.298747170415069
 31
0.0
  0
LINE
  5
580
  8
2
 62
     0
 10
92.474648025398054
 20
64.298747170415083
 30
0.0
 11
105.2548694283861
 21
64.298747170415055
 31
0.0
  0
LINE
  5
581
  8
2
 62
     0
 10
104.0048694283861
 20
68.798747170415069
 30
0.0
 11
104.0048694283861
 21
71.298747170415069
 31
0.0
  0
LINE
  5
582
  8
2
 62
     0
 10
104.0048694283861
 20
61.798747170415069
 30
0.0
 11
104.0048694283861
 21
56.382080503748412
 31
0.0
  0
LINE
  5
583
  8
2
 62
     0
 10
104.0048694283861
 20
66.298747170415069
 30
0.0
 11
104.0048694283861
 21
64.298747170415055
 31
0.0
  0
SOLID
  5
584
  8
2
 62
     0
 10
103.5882027617194
 20
68.798747170415069
 30
0.0
 11
104.4215360950528
 21
68.798747170415069
 31
0.0
 12
104.0048694283861
 22
66.298747170415069
 32
0.0
 13
104.0048694283861
 23
66.298747170415069
 33
0.0
  0
SOLID
  5
585
  8
2
 62
     0
 10
103.5882027617194
 20
61.798747170415069
 30
0.0
 11
104.4215360950528
 21
61.798747170415069
 31
0.0
 12
104.0048694283861
 22
64.298747170415055
 32
0.0
 13
104.0048694283861
 23
64.298747170415055
 33
0.0
  0
TEXT
  5
586
  8
2
 62
     0
 10
103.3798694283861
 20
57.007080503748419
 30
0.0
 40
2.5
  1
2
 50
90.0
  0
POINT
  5
587
  8
DEFPOINTS
 62
     0
 10
93.099648025398054
 20
66.298747170415083
 30
0.0
  0
POINT
  5
588
  8
DEFPOINTS
 62
     0
 10
91.849648025398054
 20
64.298747170415083
 30
0.0
  0
POINT
  5
589
  8
DEFPOINTS
 62
     0
 10
104.0048694283861
 20
64.298747170415055
 30
0.0
  0
ENDBLK
  5
58B
  8
0
  0
BLOCK
  8
0
  2
*D6
 70
     1
 10
0.0
 20
0.0
 30
0.0
  3
*D6
  1

  0
LINE
  5
58E
  8
2
 62
     0
 10
93.724648025398054
 20
66.298747170415083
 30
0.0
 11
110.0198657879715
 21
66.298747170415069
 31
0.0
  0
LINE
  5
58F
  8
2
 62
     0
 10
92.474648025398054
 20
62.298747170415083
 30
0.0
 11
110.0198657879715
 21
62.298747170415083
 31
0.0
  0
LINE
  5
590
  8
2
 62
     0
 10
108.7698657879715
 20
68.798747170415069
 30
0.0
 11
108.7698657879715
 21
71.298747170415069
 31
0.0
  0
LINE
  5
591
  8
2
 62
     0
 10
108.7698657879715
 20
59.798747170415083
 30
0.0
 11
108.7698657879715
 21
57.298747170415083
 31
0.0
  0
LINE
  5
592
  8
2
 62
     0
 10
108.7698657879715
 20
66.298747170415069
 30
0.0
 11
108.7698657879715
 21
62.298747170415083
 31
0.0
  0
SOLID
  5
593
  8
2
 62
     0
 10
108.3531991213048
 20
68.798747170415069
 30
0.0
 11
109.1865324546382
 21
68.798747170415069
 31
0.0
 12
108.7698657879715
 22
66.298747170415069
 32
0.0
 13
108.7698657879715
 23
66.298747170415069
 33
0.0
  0
SOLID
  5
594
  8
2
 62
     0
 10
108.3531991213048
 20
59.798747170415083
 30
0.0
 11
109.1865324546382
 21
59.798747170415083
 31
0.0
 12
108.7698657879715
 22
62.298747170415083
 32
0.0
 13
108.7698657879715
 23
62.298747170415083
 33
0.0
  0
TEXT
  5
595
  8
2
 62
     0
 10
108.1448657879715
 20
63.465413837081762
 30
0.0
 40
2.5
  1
4
 50
90.0
  0
POINT
  5
596
  8
DEFPOINTS
 62
     0
 10
93.099648025398054
 20
66.298747170415083
 30
0.0
  0
POINT
  5
597
  8
DEFPOINTS
 62
     0
 10
91.849648025398054
 20
62.298747170415083
 30
0.0
  0
POINT
  5
598
  8
DEFPOINTS
 62
     0
 10
108.7698657879715
 20
62.298747170415083
 30
0.0
  0
ENDBLK
  5
59A
  8
0
  0
BLOCK
  8
0
  2
*D7
 70
     1
 10
0.0
 20
0.0
 30
0.0
  3
*D7
  1

  0
LINE
  5
5A9
  8
2
 62
     0
 10
83.560922129554925
 20
52.798747170415083
 30
0.0
 11
76.642689543513256
 21
52.798747170415091
 31
0.0
  0
LINE
  5
5AA
  8
2
 62
     0
 10
86.169601435357492
 20
60.298747170415083
 30
0.0
 11
76.642689543513256
 21
60.298747170415091
 31
0.0
  0
LINE
  5
5AB
  8
2
 62
     0
 10
77.892689543513256
 20
55.298747170415091
 30
0.0
 11
77.892689543513256
 21
57.798747170415091
 31
0.0
  0
SOLID
  5
5AC
  8
2
 62
     0
 10
77.476022876846585
 20
55.298747170415091
 30
0.0
 11
78.309356210179914
 21
55.298747170415091
 31
0.0
 12
77.892689543513256
 22
52.798747170415091
 32
0.0
 13
77.892689543513256
 23
52.798747170415091
 33
0.0
  0
SOLID
  5
5AD
  8
2
 62
     0
 10
77.476022876846585
 20
57.798747170415091
 30
0.0
 11
78.309356210179914
 21
57.798747170415091
 31
0.0
 12
77.892689543513256
 22
60.298747170415091
 32
0.0
 13
77.892689543513256
 23
60.298747170415091
 33
0.0
  0
TEXT
  5
5AE
  8
2
 62
     0
 10
77.267689543513242
 20
54.048747170415098
 30
0.0
 40
2.5
  1
7.5
 50
90.0
  0
POINT
  5
5AF
  8
DEFPOINTS
 62
     0
 10
84.185922129554925
 20
52.798747170415083
 30
0.0
  0
POINT
  5
5B0
  8
DEFPOINTS
 62
     0
 10
86.794601435357492
 20
60.298747170415083
 30
0.0
  0
POINT
  5
5B1
  8
DEFPOINTS
 62
     0
 10
77.892689543513256
 20
60.298747170415091
 30
0.0
  0
ENDBLK
  5
5A8
  8
0
  0
BLOCK
  8
0
  2
*D8
 70
     1
 10
0.0
 20
0.0
 30
0.0
  3
*D8
  1

  0
LINE
  5
5C0
  8
2
 62
     0
 10
94.138373921241183
 20
52.798747170415083
 30
0.0
 11
115.1660616906687
 21
52.798747170415083
 31
0.0
  0
LINE
  5
5C1
  8
2
 62
     0
 10
93.724648025398054
 20
66.298747170415083
 30
0.0
 11
115.1660616906687
 21
66.298747170415069
 31
0.0
  0
LINE
  5
5C2
  8
2
 62
     0
 10
113.9160616906687
 20
55.298747170415083
 30
0.0
 11
113.9160616906687
 21
63.798747170415069
 31
0.0
  0
SOLID
  5
5C3
  8
2
 62
     0
 10
113.499395024002
 20
55.298747170415083
 30
0.0
 11
114.3327283573354
 21
55.298747170415083
 31
0.0
 12
113.9160616906687
 22
52.798747170415083
 32
0.0
 13
113.9160616906687
 23
52.798747170415083
 33
0.0
  0
SOLID
  5
5C4
  8
2
 62
     0
 10
113.499395024002
 20
63.798747170415069
 30
0.0
 11
114.3327283573354
 21
63.798747170415069
 31
0.0
 12
113.9160616906687
 22
66.298747170415069
 32
0.0
 13
113.9160616906687
 23
66.298747170415069
 33
0.0
  0
TEXT
  5
5C5
  8
2
 62
     0
 10
113.2910616906687
 20
56.215413837081762
 30
0.0
 40
2.5
  1
13.5
 50
90.0
  0
POINT
  5
5C6
  8
DEFPOINTS
 62
     0
 10
93.513373921241183
 20
52.798747170415083
 30
0.0
  0
POINT
  5
5C7
  8
DEFPOINTS
 62
     0
 10
93.099648025398054
 20
66.298747170415083
 30
0.0
  0
POINT
  5
5C8
  8
DEFPOINTS
 62
     0
 10
113.9160616906687
 20
66.298747170415069
 30
0.0
  0
ENDBLK
  5
5BF
  8
0
  0
BLOCK
  8
0
  2
*D9
 70
     1
 10
0.0
 20
0.0
 30
0.0
  3
*D9
  1

  0
LINE
  5
66E
  8
2
 62
     0
 10
83.849648025129795
 20
52.544770060435361
 30
0.0
 11
83.849648025129795
 21
39.806666777054843
 31
0.0
  0
LINE
  5
66F
  8
2
 62
     0
 10
93.849648025666298
 20
52.544770060435361
 30
0.0
 11
93.849648025666298
 21
39.806666777054843
 31
0.0
  0
LINE
  5
670
  8
2
 62
     0
 10
81.349648025129795
 20
41.056666777054843
 30
0.0
 11
78.84964802512981
 21
41.056666777054843
 31
0.0
  0
LINE
  5
671
  8
2
 62
     0
 10
96.349648025666298
 20
41.056666777054843
 30
0.0
 11
98.849648025666298
 21
41.056666777054843
 31
0.0
  0
LINE
  5
672
  8
2
 62
     0
 10
83.849648025129795
 20
41.056666777054843
 30
0.0
 11
93.849648025666298
 21
41.056666777054843
 31
0.0
  0
SOLID
  5
673
  8
2
 62
     0
 10
81.349648025129795
 20
41.473333443721501
 30
0.0
 11
81.349648025129795
 21
40.640000110388172
 31
0.0
 12
83.849648025129795
 22
41.056666777054843
 32
0.0
 13
83.849648025129795
 23
41.056666777054843
 33
0.0
  0
SOLID
  5
674
  8
2
 62
     0
 10
96.349648025666298
 20
41.473333443721501
 30
0.0
 11
96.349648025666298
 21
40.640000110388172
 31
0.0
 12
93.849648025666298
 22
41.056666777054843
 32
0.0
 13
93.849648025666298
 23
41.056666777054843
 33
0.0
  0
INSERT
  5
675
  8
2
  2
*U17
 10
0.0
 20
0.0
 30
0.0
  0
POINT
  5
676
  8
DEFPOINTS
 62
     0
 10
83.849648025129795
 20
53.169770060435361
 30
0.0
  0
POINT
  5
677
  8
DEFPOINTS
 62
     0
 10
93.849648025666298
 20
53.169770060435361
 30
0.0
  0
POINT
  5
678
  8
DEFPOINTS
 62
     0
 10
93.849648025666298
 20
41.056666777054843
 30
0.0
  0
ENDBLK
  5
5D7
  8
0
  0
BLOCK
  8
0
  2
*D10
 70
     1
 10
0.0
 20
0.0
 30
0.0
  3
*D10
  1

  0
LINE
  5
663
  8
2
 62
     0
 10
86.349648025398054
 20
53.664298680024046
 30
0.0
 11
86.349648025398054
 21
44.808431454057377
 31
0.0
  0
LINE
  5
664
  8
2
 62
     0
 10
91.349648025398054
 20
53.664298680024046
 30
0.0
 11
91.349648025398054
 21
44.808431454057377
 31
0.0
  0
LINE
  5
665
  8
2
 62
     0
 10
83.849648025398054
 20
46.058431454057377
 30
0.0
 11
81.349648025398054
 21
46.058431454057377
 31
0.0
  0
LINE
  5
666
  8
2
 62
     0
 10
93.849648025398054
 20
46.058431454057377
 30
0.0
 11
101.7663146920647
 21
46.058431454057377
 31
0.0
  0
LINE
  5
667
  8
2
 62
     0
 10
86.349648025398054
 20
46.058431454057377
 30
0.0
 11
91.349648025398054
 21
46.058431454057377
 31
0.0
  0
SOLID
  5
668
  8
2
 62
     0
 10
83.849648025398054
 20
46.475098120724049
 30
0.0
 11
83.849648025398054
 21
45.64176478739072
 31
0.0
 12
86.349648025398054
 22
46.058431454057377
 32
0.0
 13
86.349648025398054
 23
46.058431454057377
 33
0.0
  0
SOLID
  5
669
  8
2
 62
     0
 10
93.849648025398054
 20
46.475098120724049
 30
0.0
 11
93.849648025398054
 21
45.64176478739072
 31
0.0
 12
91.349648025398054
 22
46.058431454057377
 32
0.0
 13
91.349648025398054
 23
46.058431454057377
 33
0.0
  0
INSERT
  5
66A
  8
2
  2
*U16
 10
0.0
 20
0.0
 30
0.0
  0
POINT
  5
66B
  8
DEFPOINTS
 62
     0
 10
86.349648025398054
 20
54.289298680024046
 30
0.0
  0
POINT
  5
66C
  8
DEFPOINTS
 62
     0
 10
91.349648025398054
 20
54.289298680024046
 30
0.0
  0
POINT
  5
66D
  8
DEFPOINTS
 62
     0
 10
91.349648025398054
 20
46.058431454057377
 30
0.0
  0
ENDBLK
  5
613
  8
0
  0
BLOCK
  8
0
  2
*D11
 70
     1
 10
0.0
 20
0.0
 30
0.0
  3
*D11
  1

  0
LINE
  5
679
  8
2
 62
     0
 10
82.595005614376845
 20
56.836655321543127
 30
0.0
 11
82.595005614376845
 21
34.63087597165606
 31
0.0
  0
LINE
  5
67A
  8
2
 62
     0
 10
95.104290436419248
 20
56.836655321543127
 30
0.0
 11
95.104290436419248
 21
34.63087597165606
 31
0.0
  0
LINE
  5
67B
  8
2
 62
     0
 10
85.095005614376845
 20
35.88087597165606
 30
0.0
 11
92.604290436419248
 21
35.88087597165606
 31
0.0
  0
SOLID
  5
67C
  8
2
 62
     0
 10
85.095005614376845
 20
36.297542638322732
 30
0.0
 11
85.095005614376845
 21
35.464209304989403
 31
0.0
 12
82.595005614376845
 22
35.88087597165606
 32
0.0
 13
82.595005614376845
 23
35.88087597165606
 33
0.0
  0
SOLID
  5
67D
  8
2
 62
     0
 10
92.604290436419248
 20
36.297542638322732
 30
0.0
 11
92.604290436419248
 21
35.464209304989403
 31
0.0
 12
95.104290436419248
 22
35.88087597165606
 32
0.0
 13
95.104290436419248
 23
35.88087597165606
 33
0.0
  0
INSERT
  5
67E
  8
2
  2
*U18
 10
0.0
 20
0.0
 30
0.0
  0
POINT
  5
67F
  8
DEFPOINTS
 62
     0
 10
82.595005614376845
 20
57.461655321543127
 30
0.0
  0
POINT
  5
680
  8
DEFPOINTS
 62
     0
 10
95.104290436419248
 20
57.461655321543127
 30
0.0
  0
POINT
  5
681
  8
DEFPOINTS
 62
     0
 10
95.104290436419248
 20
35.88087597165606
 30
0.0
  0
ENDBLK
  5
62C
  8
0
  0
BLOCK
  8
0
  2
*U12
 70
     1
 10
0.0
 20
0.0
 30
0.0
  3
*U12
  1

  0
TEXT
  5
6A8
  8
2
 62
     0
 10
96.224648025398054
 20
83.893168483164402
 30
0.0
 40
2.5
  1
\U+2205
  0
TEXT
  5
6A9
  8
2
 62
     0
 10
98.724648025398054
 20
83.893168483164402
 30
0.0
 40
2.5
  1
8.5
  0
ENDBLK
  5
6AB
  8
0
  0
BLOCK
  8
0
  2
*U13
 70
     1
 10
0.0
 20
0.0
 30
0.0
  3
*U13
  1

  0
TEXT
  5
6AD
  8
2
 62
     0
 10
86.766314692064725
 20
80.209129684702447
 30
0.0
 40
2.5
  1
\U+2205
  0
TEXT
  5
6AE
  8
2
 62
     0
 10
89.266314692064725
 20
80.209129684702447
 30
0.0
 40
2.5
  1
6
  0
ENDBLK
  5
6B0
  8
0
  0
BLOCK
  8
0
  2
*U14
 70
     1
 10
0.0
 20
0.0
 30
0.0
  3
*U14
  1

  0
TEXT
  5
6B2
  8
2
 62
     0
 10
96.474648025398054
 20
76.24445596543535
 30
0.0
 40
2.5
  1
\U+2205
  0
TEXT
  5
6B3
  8
2
 62
     0
 10
98.974648025398054
 20
76.24445596543535
 30
0.0
 40
2.5
  1
4
  0
ENDBLK
  5
6B5
  8
0
  0
BLOCK
  8
0
  2
*U15
 70
     1
 10
0.0
 20
0.0
 30
0.0
  3
*U15
  1

  0
TEXT
  5
6B7
  8
2
 62
     0
 10
95.474648025398054
 20
72.630283225376672
 30
0.0
 40
2.5
  1
\U+2205
  0
TEXT
  5
6B8
  8
2
 62
     0
 10
97.974648025398054
 20
72.630283225376672
 30
0.0
 40
2.5
  1
2
  0
ENDBLK
  5
6BA
  8
0
  0
BLOCK
  8
0
  2
*U16
 70
     1
 10
0.0
 20
0.0
 30
0.0
  3
*U16
  1

  0
TEXT
  5
6BC
  8
2
 62
     0
 10
96.974648025398054
 20
46.683431454057377
 30
0.0
 40
2.5
  1
\U+2205
  0
TEXT
  5
6BD
  8
2
 62
     0
 10
99.474648025398054
 20
46.683431454057377
 30
0.0
 40
2.5
  1
5
  0
ENDBLK
  5
6BF
  8
0
  0
BLOCK
  8
0
  2
*U17
 70
     1
 10
0.0
 20
0.0
 30
0.0
  3
*U17
  1

  0
TEXT
  5
6C1
  8
2
 62
     0
 10
86.150312985796006
 20
41.681666777054843
 30
0.0
 40
2.5
  1
\U+2205
  0
TEXT
  5
6C2
  8
2
 62
     0
 10
88.650312985796006
 20
41.681666777054843
 30
0.0
 40
2.5
  1
10
  0
ENDBLK
  5
6C4
  8
0
  0
BLOCK
  8
0
  2
*U18
 70
     1
 10
0.0
 20
0.0
 30
0.0
  3
*U18
  1

  0
TEXT
  5
6C6
  8
2
 62
     0
 10
84.266314692064725
 20
36.50587597165606
 30
0.0
 40
2.5
  1
\U+2205
  0
TEXT
  5
6C7
  8
2
 62
     0
 10
86.766314692064725
 20
36.50587597165606
 30
0.0
 40
2.5
  1
12.5
  0
ENDBLK
  5
6C9
  8
0
  0
ENDSEC
  0
SECTION
  2
ENTITIES
  0
TEXT
  5
D7
  8
2
 10
72.824096219673393
 20
25.8398483889641
 30
0.0
 40
2.5399440000000002
  1
No. 23.010.123._
 51
-0.0000015352344868
  7
\U+00C9L\U+00C9R_\U+00C2S\U+00C2V\U+00C2B\U+00C2N
  0
LINE
  5
18D
  8
0
 39
3.262600162
 10
86.144560979214745
 20
53.804215287937893
 30
0.0
 11
86.144560979214745
 21
53.804215287937893
 31
0.0
  0
LINE
  5
18E
  8
0
 39
3.262600162
 10
86.144560979214745
 20
53.804215287937893
 30
0.0
 11
86.206550382292704
 21
53.879711855686558
 31
0.0
  0
LINE
  5
18F
  8
0
 39
3.262600162
 10
86.206550382292704
 20
53.879711855686558
 30
0.0
 11
86.256598668777798
 21
53.952402587295929
 31
0.0
  0
LINE
  5
190
  8
0
 39
3.262600162
 10
86.256598668777798
 20
53.952402587295929
 30
0.0
 11
86.295488862708851
 21
54.022678994785402
 31
0.0
  0
LINE
  5
191
  8
0
 39
3.262600162
 10
86.295488862708851
 20
54.022678994785402
 30
0.0
 11
86.323612476105282
 21
54.091063094180932
 31
0.0
  0
LINE
  5
192
  8
0
 39
3.262600162
 10
86.323612476105282
 20
54.091063094180932
 30
0.0
 11
86.341687281002748
 21
54.157881145498692
 31
0.0
  0
LINE
  5
193
  8
0
 39
3.262600162
 10
86.341687281002748
 20
54.157881145498692
 30
0.0
 11
86.350170041423965
 21
54.223850920774332
 31
0.0
  0
LINE
  5
194
  8
0
 39
3.262600162
 10
86.350170041423965
 20
54.223850920774332
 30
0.0
 11
86.349648025398054
 21
54.289298680024046
 31
0.0
  0
LINE
  5
195
  8
0
 39
3.262600162
 10
86.349648025398054
 20
54.289298680024046
 30
0.0
 11
86.340512744944434
 21
54.354746439273768
 31
0.0
  0
LINE
  5
196
  8
0
 39
3.262600162
 10
86.340512744944434
 20
54.354746439273768
 30
0.0
 11
86.323742980111774
 21
54.42058571054293
 31
0.0
  0
LINE
  5
197
  8
0
 39
3.262600162
 10
86.323742980111774
 20
54.42058571054293
 30
0.0
 11
86.299469234906496
 21
54.487469013863922
 31
0.0
  0
LINE
  5
198
  8
0
 39
3.262600162
 10
86.299469234906496
 20
54.487469013863922
 30
0.0
 11
86.268409281364242
 21
54.555722609252967
 31
0.0
  0
LINE
  5
199
  8
0
 39
3.262600162
 10
86.268409281364242
 20
54.555722609252967
 30
0.0
 11
86.231085135510966
 21
54.626064268745679
 31
0.0
  0
LINE
  5
19A
  8
0
 39
3.262600162
 10
86.231085135510966
 20
54.626064268745679
 30
0.0
 11
86.188149317379043
 21
54.698624496348572
 31
0.0
  0
LINE
  5
19B
  8
0
 39
3.262600162
 10
86.188149317379043
 20
54.698624496348572
 30
0.0
 11
86.139993338987921
 21
54.774186316100483
 31
0.0
  0
LINE
  5
19C
  8
0
 39
3.262600162
 10
86.139993338987921
 20
54.774186316100483
 30
0.0
 11
86.087334972373242
 21
54.853010736014411
 31
0.0
  0
LINE
  5
19D
  8
0
 39
3.262600162
 10
86.087334972373242
 20
54.853010736014411
 30
0.0
 11
86.0305004775512
 21
54.935880780129203
 31
0.0
  0
LINE
  5
19E
  8
0
 39
3.262600162
 10
86.0305004775512
 20
54.935880780129203
 30
0.0
 11
84.033071406237454
 21
57.010633475148254
 31
0.0
  0
LINE
  5
19F
  8
0
 39
3.262600162
 10
84.033071406237454
 20
57.010633475148254
 30
0.0
 11
84.033071406237454
 21
57.010633475148254
 31
0.0
  0
LINE
  5
1A0
  8
0
 39
3.262600162
 10
84.033071406237454
 20
57.010633475148254
 30
0.0
 11
83.953463962284658
 21
57.061269029662483
 31
0.0
  0
LINE
  5
1A1
  8
0
 39
3.262600162
 10
83.953463962284658
 20
57.061269029662483
 30
0.0
 11
83.884623098866456
 21
57.114906176325761
 31
0.0
  0
LINE
  5
1A2
  8
0
 39
3.262600162
 10
83.884623098866456
 20
57.114906176325761
 30
0.0
 11
83.827136084012025
 21
57.171022899112167
 31
0.0
  0
LINE
  5
1A3
  8
0
 39
3.262600162
 10
83.827136084012025
 20
57.171022899112167
 30
0.0
 11
83.781198673731055
 21
57.229488694015203
 31
0.0
  0
LINE
  5
1A4
  8
0
 39
3.262600162
 10
83.781198673731055
 20
57.229488694015203
 30
0.0
 11
83.747398136052723
 21
57.289716293005732
 31
0.0
  0
LINE
  5
1A5
  8
0
 39
3.262600162
 10
83.747398136052723
 20
57.289716293005732
 30
0.0
 11
83.725930226986776
 21
57.351705696083727
 31
0.0
  0
LINE
  5
1A6
  8
0
 39
3.262600162
 10
83.725930226986776
 20
57.351705696083727
 30
0.0
 11
83.717316962559082
 21
57.414934887223282
 31
0.0
  0
LINE
  5
1A7
  8
0
 39
3.262600162
 10
83.717316962559082
 20
57.414934887223282
 30
0.0
 11
83.721819350782638
 21
57.479273362417928
 31
0.0
  0
LINE
  5
1A8
  8
0
 39
3.262600162
 10
83.721819350782638
 20
57.479273362417928
 30
0.0
 11
83.739959407683358
 21
57.544068601635239
 31
0.0
  0
LINE
  5
1A9
  8
0
 39
3.262600162
 10
83.739959407683358
 20
57.544068601635239
 30
0.0
 11
83.771998141274196
 21
57.609385856878482
 31
0.0
  0
LINE
  5
1AA
  8
0
 39
3.262600162
 10
83.771998141274196
 20
57.609385856878482
 30
0.0
 11
83.818327063574614
 21
57.674703112121712
 31
0.0
  0
LINE
  5
1AB
  8
0
 39
3.262600162
 10
83.818327063574614
 20
57.674703112121712
 30
0.0
 11
83.879207182597526
 21
57.739824611355239
 31
0.0
  0
LINE
  5
1AC
  8
0
 39
3.262600162
 10
83.879207182597526
 20
57.739824611355239
 30
0.0
 11
83.955291018375377
 21
57.804293590556362
 31
0.0
  0
LINE
  5
1AD
  8
0
 39
3.262600162
 10
83.955291018375377
 20
57.804293590556362
 30
0.0
 11
84.046709074914617
 21
57.867979545718597
 31
0.0
  0
LINE
  5
1AE
  8
0
 39
3.262600162
 10
84.046709074914617
 20
57.867979545718597
 30
0.0
 11
84.153983368241185
 21
57.930425712819293
 31
0.0
  0
LINE
  5
1AF
  8
0
 39
3.262600162
 10
84.153983368241185
 20
57.930425712819293
 30
0.0
 11
84.277374906367996
 21
57.991436335848682
 31
0.0
  0
LINE
  5
1B0
  8
0
 39
3.262600162
 10
84.277374906367996
 20
57.991436335848682
 30
0.0
 11
86.794601435357492
 21
60.298747170415083
 31
0.0
  0
LINE
  5
1B1
  8
0
 39
3.262600162
 10
86.794601435357492
 20
60.298747170415083
 30
0.0
 11
88.849648025398054
 21
60.298747170415083
 31
0.0
  0
LINE
  5
1B5
  8
0
 39
3.262600162
 10
88.849648025398054
 20
66.298747170415083
 30
0.0
 11
84.599648025398054
 21
66.298747170415083
 31
0.0
  0
LINE
  5
1B7
  8
0
 39
3.262600162
 10
84.599648025398054
 20
59.669799772706448
 30
0.0
 11
82.975229037256327
 21
58.106736625573767
 31
0.0
  0
LINE
  5
1B8
  8
0
 39
3.262600162
 10
82.975229037256327
 20
58.106736625573767
 30
0.0
 11
82.975229037256327
 21
58.106736625573767
 31
0.0
  0
LINE
  5
1B9
  8
0
 39
3.262600162
 10
82.975229037256327
 20
58.106736625573767
 30
0.0
 11
82.884920264772177
 21
58.045726002544363
 31
0.0
  0
LINE
  5
1BA
  8
0
 39
3.262600162
 10
82.884920264772177
 20
58.045726002544363
 30
0.0
 11
82.806487356877696
 21
57.976950391129407
 31
0.0
  0
LINE
  5
1BB
  8
0
 39
3.262600162
 10
82.806487356877696
 20
57.976950391129407
 30
0.0
 11
82.740256573589093
 21
57.901388571377488
 31
0.0
  0
LINE
  5
1BC
  8
0
 39
3.262600162
 10
82.740256573589093
 20
57.901388571377488
 30
0.0
 11
82.686162662903129
 21
57.820215079346923
 31
0.0
  0
LINE
  5
1BD
  8
0
 39
3.262600162
 10
82.686162662903129
 20
57.820215079346923
 30
0.0
 11
82.644531884836013
 21
57.734408695086323
 31
0.0
  0
LINE
  5
1BE
  8
0
 39
3.262600162
 10
82.644531884836013
 20
57.734408695086323
 30
0.0
 11
82.615364239387731
 21
57.64533971066372
 31
0.0
  0
LINE
  5
1BF
  8
0
 39
3.262600162
 10
82.615364239387731
 20
57.64533971066372
 30
0.0
 11
82.598855482568027
 21
57.554052158130958
 31
0.0
  0
LINE
  5
1C0
  8
0
 39
3.262600162
 10
82.598855482568027
 20
57.554052158130958
 30
0.0
 11
82.595005614376845
 21
57.461655321543127
 31
0.0
  0
LINE
  5
1C1
  8
0
 39
3.262600162
 10
82.595005614376845
 20
57.461655321543127
 30
0.0
 11
82.604206146833675
 21
57.369062728945572
 31
0.0
  0
LINE
  5
1C2
  8
0
 39
3.262600162
 10
82.604206146833675
 20
57.369062728945572
 30
0.0
 11
82.626391827935294
 21
57.277840428416042
 31
0.0
  0
LINE
  5
1C3
  8
0
 39
3.262600162
 10
82.626391827935294
 20
57.277840428416042
 30
0.0
 11
82.661823665694612
 21
57.188771443993438
 31
0.0
  0
LINE
  5
1C4
  8
0
 39
3.262600162
 10
82.661823665694612
 20
57.188771443993438
 30
0.0
 11
82.710371156105182
 21
57.103160815742562
 31
0.0
  0
LINE
  5
1C5
  8
0
 39
3.262600162
 10
82.710371156105182
 20
57.103160815742562
 30
0.0
 11
82.772491063189676
 21
57.021987323712011
 31
0.0
  0
LINE
  5
1C6
  8
0
 39
3.262600162
 10
82.772491063189676
 20
57.021987323712011
 30
0.0
 11
82.848052882941559
 21
56.946556007966556
 31
0.0
  0
LINE
  5
1C7
  8
0
 39
3.262600162
 10
82.848052882941559
 20
56.946556007966556
 30
0.0
 11
82.937382875377125
 21
56.877910900558092
 31
0.0
  0
LINE
  5
1C8
  8
0
 39
3.262600162
 10
82.937382875377125
 20
56.877910900558092
 30
0.0
 11
83.040481040496317
 21
56.817226537544883
 31
0.0
  0
LINE
  5
1C9
  8
0
 39
3.262600162
 10
83.040481040496317
 20
56.817226537544883
 30
0.0
 11
85.256937979141014
 21
54.71898312135945
 31
0.0
  0
LINE
  5
1CA
  8
0
 39
3.262600162
 10
85.256937979141014
 20
54.71898312135945
 30
0.0
 11
85.256937979141014
 21
54.71898312135945
 31
0.0
  0
LINE
  5
1CB
  8
0
 39
3.262600162
 10
85.256937979141014
 20
54.71898312135945
 30
0.0
 11
85.337524203142408
 21
54.69183828801161
 31
0.0
  0
LINE
  5
1CC
  8
0
 39
3.262600162
 10
85.337524203142408
 20
54.69183828801161
 30
0.0
 11
85.409562414719375
 21
54.660060562433721
 31
0.0
  0
LINE
  5
1CD
  8
0
 39
3.262600162
 10
85.409562414719375
 20
54.660060562433721
 30
0.0
 11
85.472791605858916
 21
54.624106708648483
 31
0.0
  0
LINE
  5
1CE
  8
0
 39
3.262600162
 10
85.472791605858916
 20
54.624106708648483
 30
0.0
 11
85.526820264541655
 21
54.584825002697997
 31
0.0
  0
LINE
  5
1CF
  8
0
 39
3.262600162
 10
85.526820264541655
 20
54.584825002697997
 30
0.0
 11
85.571452634757804
 21
54.542737460608201
 31
0.0
  0
LINE
  5
1D0
  8
0
 39
3.262600162
 10
85.571452634757804
 20
54.542737460608201
 30
0.0
 11
85.606231952484734
 21
54.498757610424448
 31
0.0
  0
LINE
  5
1D1
  8
0
 39
3.262600162
 10
85.606231952484734
 20
54.498757610424448
 30
0.0
 11
85.630831957706206
 21
54.453342216169411
 31
0.0
  0
LINE
  5
1D2
  8
0
 39
3.262600162
 10
85.630831957706206
 20
54.453342216169411
 30
0.0
 11
85.644861138402788
 21
54.407274301881962
 31
0.0
  0
LINE
  5
1D3
  8
0
 39
3.262600162
 10
85.644861138402788
 20
54.407274301881962
 30
0.0
 11
85.648254242571284
 21
54.361141135591289
 31
0.0
  0
LINE
  5
1D4
  8
0
 39
3.262600162
 10
85.648254242571284
 20
54.361141135591289
 30
0.0
 11
85.640293498176007
 21
54.315725741336252
 31
0.0
  0
LINE
  5
1D5
  8
0
 39
3.262600162
 10
85.640293498176007
 20
54.315725741336252
 30
0.0
 11
85.620913653213705
 21
54.271680639149238
 31
0.0
  0
LINE
  5
1D6
  8
0
 39
3.262600162
 10
85.620913653213705
 20
54.271680639149238
 30
0.0
 11
85.589592691658524
 21
54.229723601065928
 31
0.0
  0
LINE
  5
1D7
  8
0
 39
3.262600162
 10
85.589592691658524
 20
54.229723601065928
 30
0.0
 11
85.546200109503914
 21
54.190311391108963
 31
0.0
  0
LINE
  5
1D8
  8
0
 39
3.262600162
 10
85.546200109503914
 20
54.190311391108963
 30
0.0
 11
85.490148638720754
 21
54.154488041330211
 31
0.0
  0
LINE
  5
1D9
  8
0
 39
3.262600162
 10
85.490148638720754
 20
54.154488041330211
 30
0.0
 11
85.421307775302566
 21
54.12264506374909
 31
0.0
  0
LINE
  5
1DA
  8
0
 39
3.262600162
 10
85.421307775302566
 20
54.12264506374909
 30
0.0
 11
85.339090251220171
 21
54.095695986410959
 31
0.0
  0
LINE
  5
1DB
  8
0
 39
3.262600162
 10
85.339090251220171
 20
54.095695986410959
 30
0.0
 11
83.849648025129795
 21
53.169770060435361
 31
0.0
  0
LINE
  5
1DC
  8
0
 39
3.262600162
 10
83.849648025129795
 20
53.169770060435361
 30
0.0
 11
84.185922129554925
 21
52.798747170415083
 31
0.0
  0
LINE
  5
1F2
  8
0
 10
86.349648025398054
 20
54.289298680024046
 30
0.0
 11
88.849648025398054
 21
54.289298680024046
 31
0.0
  0
LINE
  5
474
  8
1
 10
88.849648025398054
 20
66.798747170415083
 30
0.0
 11
88.849648025398054
 21
52.298747170415083
 31
0.0
  0
LINE
  5
476
  8
0
 10
87.849648025398054
 20
62.298747170415083
 30
0.0
 11
87.849648025398054
 21
60.298747170415083
 31
0.0
  0
LINE
  5
477
  8
0
 10
86.849648025398054
 20
66.298747170415083
 30
0.0
 11
86.849648025398054
 21
64.298747170415083
 31
0.0
  0
LINE
  5
478
  8
0
 10
85.849648025398054
 20
64.298747170415083
 30
0.0
 11
85.849648025398054
 21
62.298747170415083
 31
0.0
  0
LINE
  5
47A
  8
0
 10
85.849648025398054
 20
64.298747170415083
 30
0.0
 11
88.849648025398054
 21
64.298747170415083
 31
0.0
  0
LINE
  5
47B
  8
0
 10
85.849648025398054
 20
62.298747170415083
 30
0.0
 11
88.849648025398054
 21
62.298747170415083
 31
0.0
  0
LINE
  5
47D
  8
0
 10
84.185922129554925
 20
52.798747170415083
 30
0.0
 11
88.849648025398054
 21
52.798747170415083
 31
0.0
  0
LINE
  5
48A
  8
0
 10
86.144560979214745
 20
53.804215287937893
 30
0.0
 11
84.185922129554925
 21
52.798747170415083
 31
0.0
  0
LINE
  5
4C9
  8
0
 10
83.717316962559082
 20
57.414934887223282
 30
0.0
 11
88.849648025398054
 21
57.414934887223282
 31
0.0
  0
LINE
  5
4E3
  8
0
 39
3.262600162
 10
93.849648025666298
 20
53.169770060435361
 30
0.0
 11
93.513373921241183
 21
52.798747170415083
 31
0.0
  0
LINE
  5
4E4
  8
0
 39
3.262600162
 10
92.360205799575937
 20
54.095695986410959
 30
0.0
 11
93.849648025666298
 21
53.169770060435361
 31
0.0
  0
LINE
  5
4E5
  8
0
 39
3.262600162
 10
92.277988275493556
 20
54.12264506374909
 30
0.0
 11
92.360205799575937
 21
54.095695986410959
 31
0.0
  0
LINE
  5
4E6
  8
0
 39
3.262600162
 10
92.209147412075339
 20
54.154488041330211
 30
0.0
 11
92.277988275493556
 21
54.12264506374909
 31
0.0
  0
LINE
  5
4E7
  8
0
 39
3.262600162
 10
92.153095941292179
 20
54.190311391108963
 30
0.0
 11
92.209147412075339
 21
54.154488041330211
 31
0.0
  0
LINE
  5
4E8
  8
0
 39
3.262600162
 10
92.109703359137583
 20
54.229723601065928
 30
0.0
 11
92.153095941292179
 21
54.190311391108963
 31
0.0
  0
LINE
  5
4E9
  8
0
 39
3.262600162
 10
92.078382397582374
 20
54.271680639149238
 30
0.0
 11
92.109703359137583
 21
54.229723601065928
 31
0.0
  0
LINE
  5
4EA
  8
0
 39
3.262600162
 10
92.0590025526201
 20
54.315725741336252
 30
0.0
 11
92.078382397582374
 21
54.271680639149238
 31
0.0
  0
LINE
  5
4EB
  8
0
 39
3.262600162
 10
92.051041808224824
 20
54.361141135591289
 30
0.0
 11
92.0590025526201
 21
54.315725741336252
 31
0.0
  0
LINE
  5
4EC
  8
0
 39
3.262600162
 10
92.054434912393305
 20
54.407274301881962
 30
0.0
 11
92.051041808224824
 21
54.361141135591289
 31
0.0
  0
LINE
  5
4ED
  8
0
 39
3.262600162
 10
92.068464093089901
 20
54.453342216169411
 30
0.0
 11
92.054434912393305
 21
54.407274301881962
 31
0.0
  0
LINE
  5
4EE
  8
0
 39
3.262600162
 10
92.093064098311388
 20
54.498757610424448
 30
0.0
 11
92.068464093089901
 21
54.453342216169411
 31
0.0
  0
LINE
  5
4EF
  8
0
 39
3.262600162
 10
92.127843416038303
 20
54.542737460608201
 30
0.0
 11
92.093064098311388
 21
54.498757610424448
 31
0.0
  0
LINE
  5
4F0
  8
0
 39
3.262600162
 10
92.172475786254438
 20
54.584825002697997
 30
0.0
 11
92.127843416038303
 21
54.542737460608201
 31
0.0
  0
LINE
  5
4F1
  8
0
 39
3.262600162
 10
92.226504444937177
 20
54.624106708648483
 30
0.0
 11
92.172475786254438
 21
54.584825002697997
 31
0.0
  0
LINE
  5
4F2
  8
0
 39
3.262600162
 10
92.289733636076747
 20
54.660060562433721
 30
0.0
 11
92.226504444937177
 21
54.624106708648483
 31
0.0
  0
LINE
  5
4F3
  8
0
 39
3.262600162
 10
92.361771847653699
 20
54.69183828801161
 30
0.0
 11
92.289733636076747
 21
54.660060562433721
 31
0.0
  0
LINE
  5
4F4
  8
0
 39
3.262600162
 10
92.442358071655093
 20
54.71898312135945
 30
0.0
 11
92.361771847653699
 21
54.69183828801161
 31
0.0
  0
LINE
  5
4F5
  8
0
 39
3.262600162
 10
92.442358071655093
 20
54.71898312135945
 30
0.0
 11
92.442358071655093
 21
54.71898312135945
 31
0.0
  0
LINE
  5
4F6
  8
0
 39
3.262600162
 10
94.658815010299776
 20
56.817226537544883
 30
0.0
 11
92.442358071655093
 21
54.71898312135945
 31
0.0
  0
LINE
  5
4F7
  8
0
 39
3.262600162
 10
94.761913175418954
 20
56.877910900558092
 30
0.0
 11
94.658815010299776
 21
56.817226537544883
 31
0.0
  0
LINE
  5
4F8
  8
0
 39
3.262600162
 10
94.851243167854534
 20
56.946556007966556
 30
0.0
 11
94.761913175418954
 21
56.877910900558092
 31
0.0
  0
LINE
  5
4F9
  8
0
 39
3.262600162
 10
94.926804987606445
 20
57.021987323712011
 30
0.0
 11
94.851243167854534
 21
56.946556007966556
 31
0.0
  0
LINE
  5
4FA
  8
0
 39
3.262600162
 10
94.988924894690925
 20
57.103160815742562
 30
0.0
 11
94.926804987606445
 21
57.021987323712011
 31
0.0
  0
LINE
  5
4FB
  8
0
 39
3.262600162
 10
95.037472385101495
 20
57.188771443993438
 30
0.0
 11
94.988924894690925
 21
57.103160815742562
 31
0.0
  0
LINE
  5
4FC
  8
0
 39
3.262600162
 10
95.072904222860814
 20
57.277840428416042
 30
0.0
 11
95.037472385101495
 21
57.188771443993438
 31
0.0
  0
LINE
  5
4FD
  8
0
 39
3.262600162
 10
95.095089903962403
 20
57.369062728945572
 30
0.0
 11
95.072904222860814
 21
57.277840428416042
 31
0.0
  0
LINE
  5
4FE
  8
0
 39
3.262600162
 10
95.104290436419248
 20
57.461655321543127
 30
0.0
 11
95.095089903962403
 21
57.369062728945572
 31
0.0
  0
LINE
  5
4FF
  8
0
 39
3.262600162
 10
95.100440568228095
 20
57.554052158130958
 30
0.0
 11
95.104290436419248
 21
57.461655321543127
 31
0.0
  0
LINE
  5
500
  8
0
 39
3.262600162
 10
95.083931811408377
 20
57.64533971066372
 30
0.0
 11
95.100440568228095
 21
57.554052158130958
 31
0.0
  0
LINE
  5
501
  8
0
 39
3.262600162
 10
95.054764165960094
 20
57.734408695086323
 30
0.0
 11
95.083931811408377
 21
57.64533971066372
 31
0.0
  0
LINE
  5
502
  8
0
 39
3.262600162
 10
95.013133387892978
 20
57.820215079346923
 30
0.0
 11
95.054764165960094
 21
57.734408695086323
 31
0.0
  0
LINE
  5
503
  8
0
 39
3.262600162
 10
94.959039477207014
 20
57.901388571377488
 30
0.0
 11
95.013133387892978
 21
57.820215079346923
 31
0.0
  0
LINE
  5
504
  8
0
 39
3.262600162
 10
94.892808693918411
 20
57.976950391129407
 30
0.0
 11
94.959039477207014
 21
57.901388571377488
 31
0.0
  0
LINE
  5
505
  8
0
 39
3.262600162
 10
94.814375786023945
 20
58.045726002544363
 30
0.0
 11
94.892808693918411
 21
57.976950391129407
 31
0.0
  0
LINE
  5
506
  8
0
 39
3.262600162
 10
94.724067013539766
 20
58.106736625573767
 30
0.0
 11
94.814375786023945
 21
58.045726002544363
 31
0.0
  0
LINE
  5
507
  8
0
 39
3.262600162
 10
94.724067013539766
 20
58.106736625573767
 30
0.0
 11
94.724067013539766
 21
58.106736625573767
 31
0.0
  0
LINE
  5
508
  8
0
 39
3.262600162
 10
93.099648025398054
 20
59.66979977270644
 30
0.0
 11
94.724067013539766
 21
58.106736625573767
 31
0.0
  0
LINE
  5
50A
  8
0
 39
3.262600162
 10
88.849648025398054
 20
66.298747170415083
 30
0.0
 11
93.099648025398054
 21
66.298747170415083
 31
0.0
  0
LINE
  5
50B
  8
0
 39
3.262600162
 10
90.904694615438615
 20
60.298747170415083
 30
0.0
 11
88.849648025398054
 21
60.298747170415083
 31
0.0
  0
LINE
  5
50C
  8
0
 39
3.262600162
 10
93.421921144428083
 20
57.991436335848682
 30
0.0
 11
90.904694615438615
 21
60.298747170415083
 31
0.0
  0
LINE
  5
50D
  8
0
 39
3.262600162
 10
93.545312682554922
 20
57.930425712819293
 30
0.0
 11
93.421921144428083
 21
57.991436335848682
 31
0.0
  0
LINE
  5
50E
  8
0
 39
3.262600162
 10
93.652586975881491
 20
57.867979545718597
 30
0.0
 11
93.545312682554922
 21
57.930425712819293
 31
0.0
  0
LINE
  5
50F
  8
0
 39
3.262600162
 10
93.744005032420745
 20
57.804293590556362
 30
0.0
 11
93.652586975881491
 21
57.867979545718597
 31
0.0
  0
LINE
  5
510
  8
0
 39
3.262600162
 10
93.820088868198596
 20
57.739824611355239
 30
0.0
 11
93.744005032420745
 21
57.804293590556362
 31
0.0
  0
LINE
  5
511
  8
0
 39
3.262600162
 10
93.880968987221493
 20
57.674703112121712
 30
0.0
 11
93.820088868198596
 21
57.739824611355239
 31
0.0
  0
LINE
  5
512
  8
0
 39
3.262600162
 10
93.927297909521897
 20
57.609385856878482
 30
0.0
 11
93.880968987221493
 21
57.674703112121712
 31
0.0
  0
LINE
  5
513
  8
0
 39
3.262600162
 10
93.959336643112735
 20
57.544068601635239
 30
0.0
 11
93.927297909521897
 21
57.609385856878482
 31
0.0
  0
LINE
  5
514
  8
0
 39
3.262600162
 10
93.977476700013455
 20
57.479273362417928
 30
0.0
 11
93.959336643112735
 21
57.544068601635239
 31
0.0
  0
LINE
  5
515
  8
0
 39
3.262600162
 10
93.981979088237026
 20
57.414934887223282
 30
0.0
 11
93.977476700013455
 21
57.479273362417928
 31
0.0
  0
LINE
  5
516
  8
0
 39
3.262600162
 10
93.973365823809331
 20
57.351705696083727
 30
0.0
 11
93.981979088237026
 21
57.414934887223282
 31
0.0
  0
LINE
  5
517
  8
0
 39
3.262600162
 10
93.951897914743355
 20
57.289716293005732
 30
0.0
 11
93.973365823809331
 21
57.351705696083727
 31
0.0
  0
LINE
  5
518
  8
0
 39
3.262600162
 10
93.918097377065052
 20
57.229488694015203
 30
0.0
 11
93.951897914743355
 21
57.289716293005732
 31
0.0
  0
LINE
  5
519
  8
0
 39
3.262600162
 10
93.872159966784096
 20
57.171022899112167
 30
0.0
 11
93.918097377065052
 21
57.229488694015203
 31
0.0
  0
LINE
  5
51A
  8
0
 39
3.262600162
 10
93.814672951929651
 20
57.114906176325761
 30
0.0
 11
93.872159966784096
 21
57.171022899112167
 31
0.0
  0
LINE
  5
51B
  8
0
 39
3.262600162
 10
93.745832088511449
 20
57.061269029662483
 30
0.0
 11
93.814672951929651
 21
57.114906176325761
 31
0.0
  0
LINE
  5
51C
  8
0
 39
3.262600162
 10
93.666224644558653
 20
57.010633475148254
 30
0.0
 11
93.745832088511449
 21
57.061269029662483
 31
0.0
  0
LINE
  5
51D
  8
0
 39
3.262600162
 10
93.666224644558653
 20
57.010633475148254
 30
0.0
 11
93.666224644558653
 21
57.010633475148254
 31
0.0
  0
LINE
  5
51E
  8
0
 39
3.262600162
 10
91.668795573244907
 20
54.935880780129203
 30
0.0
 11
93.666224644558653
 21
57.010633475148254
 31
0.0
  0
LINE
  5
51F
  8
0
 39
3.262600162
 10
91.611961078422866
 20
54.853010736014411
 30
0.0
 11
91.668795573244907
 21
54.935880780129203
 31
0.0
  0
LINE
  5
520
  8
0
 39
3.262600162
 10
91.559302711808186
 20
54.774186316100483
 30
0.0
 11
91.611961078422866
 21
54.853010736014411
 31
0.0
  0
LINE
  5
521
  8
0
 39
3.262600162
 10
91.511146733417064
 20
54.698624496348572
 30
0.0
 11
91.559302711808186
 21
54.774186316100483
 31
0.0
  0
LINE
  5
522
  8
0
 39
3.262600162
 10
91.468210915285127
 20
54.626064268745679
 30
0.0
 11
91.511146733417064
 21
54.698624496348572
 31
0.0
  0
LINE
  5
523
  8
0
 39
3.262600162
 10
91.430886769431865
 20
54.555722609252967
 30
0.0
 11
91.468210915285127
 21
54.626064268745679
 31
0.0
  0
LINE
  5
524
  8
0
 39
3.262600162
 10
91.399826815889611
 20
54.487469013863922
 30
0.0
 11
91.430886769431865
 21
54.555722609252967
 31
0.0
  0
LINE
  5
525
  8
0
 39
3.262600162
 10
91.375553070684347
 20
54.42058571054293
 30
0.0
 11
91.399826815889611
 21
54.487469013863922
 31
0.0
  0
LINE
  5
526
  8
0
 39
3.262600162
 10
91.358783305851674
 20
54.354746439273768
 30
0.0
 11
91.375553070684347
 21
54.42058571054293
 31
0.0
  0
LINE
  5
527
  8
0
 39
3.262600162
 10
91.349648025398054
 20
54.289298680024046
 30
0.0
 11
91.358783305851674
 21
54.354746439273768
 31
0.0
  0
LINE
  5
528
  8
0
 39
3.262600162
 10
91.349126009372142
 20
54.223850920774332
 30
0.0
 11
91.349648025398054
 21
54.289298680024046
 31
0.0
  0
LINE
  5
529
  8
0
 39
3.262600162
 10
91.357608769793345
 20
54.157881145498692
 30
0.0
 11
91.349126009372142
 21
54.223850920774332
 31
0.0
  0
LINE
  5
52A
  8
0
 39
3.262600162
 10
91.375683574690825
 20
54.091063094180932
 30
0.0
 11
91.357608769793345
 21
54.157881145498692
 31
0.0
  0
LINE
  5
52B
  8
0
 39
3.262600162
 10
91.403807188087256
 20
54.022678994785402
 30
0.0
 11
91.375683574690825
 21
54.091063094180932
 31
0.0
  0
LINE
  5
52C
  8
0
 39
3.262600162
 10
91.442697382018295
 20
53.952402587295929
 30
0.0
 11
91.403807188087256
 21
54.022678994785402
 31
0.0
  0
LINE
  5
52D
  8
0
 39
3.262600162
 10
91.492745668503389
 20
53.879711855686558
 30
0.0
 11
91.442697382018295
 21
53.952402587295929
 31
0.0
  0
LINE
  5
52E
  8
0
 39
3.262600162
 10
91.554735071581376
 20
53.804215287937893
 30
0.0
 11
91.492745668503389
 21
53.879711855686558
 31
0.0
  0
LINE
  5
52F
  8
0
 39
3.262600162
 10
91.554735071581376
 20
53.804215287937893
 30
0.0
 11
91.554735071581376
 21
53.804215287937893
 31
0.0
  0
LINE
  5
531
  8
0
 10
93.513373921241183
 20
52.798747170415083
 30
0.0
 11
88.849648025398054
 21
52.798747170415083
 31
0.0
  0
LINE
  5
532
  8
0
 10
91.349648025398025
 20
54.289298680024046
 30
0.0
 11
88.849648025398054
 21
54.289298680024046
 31
0.0
  0
LINE
  5
533
  8
0
 10
91.554735071581376
 20
53.804215287937893
 30
0.0
 11
93.513373921241183
 21
52.798747170415083
 31
0.0
  0
LINE
  5
534
  8
0
 10
93.981979088237026
 20
57.414934887223282
 30
0.0
 11
88.849648025398054
 21
57.414934887223282
 31
0.0
  0
LINE
  5
535
  8
0
 10
91.849648025398054
 20
62.298747170415083
 30
0.0
 11
88.849648025398054
 21
62.298747170415083
 31
0.0
  0
LINE
  5
536
  8
0
 10
91.849648025398054
 20
64.298747170415083
 30
0.0
 11
88.849648025398054
 21
64.298747170415083
 31
0.0
  0
LINE
  5
537
  8
0
 10
91.849648025398054
 20
64.298747170415083
 30
0.0
 11
91.849648025398054
 21
62.298747170415083
 31
0.0
  0
LINE
  5
538
  8
0
 10
90.849648025398054
 20
66.298747170415083
 30
0.0
 11
90.849648025398054
 21
64.298747170415083
 31
0.0
  0
LINE
  5
539
  8
0
 10
89.849648025398054
 20
62.298747170415083
 30
0.0
 11
89.849648025398054
 21
60.298747170415083
 31
0.0
  0
DIMENSION
  5
53E
  8
2
  2
*D1
 10
89.849648025398054
 20
72.005283225376672
 30
0.0
 11
97.557981358731382
 21
73.880283225376672
 31
0.0
 70
     0
  1
%%c<>
 13
87.849648025398054
 23
62.298747170415083
 33
0.0
 14
89.849648025398054
 24
62.298747170415083
 34
0.0
  0
DIMENSION
  5
54D
  8
2
  2
*D2
 10
90.849648025398054
 20
75.61945596543535
 30
0.0
 11
98.557981358731382
 21
77.49445596543535
 31
0.0
 70
     0
  1
%%c<>
 13
86.849648025398054
 23
66.298747170415083
 33
0.0
 14
90.849648025398054
 24
66.298747170415083
 34
0.0
  0
DIMENSION
  5
55C
  8
2
  2
*D3
 10
91.849648025398054
 20
79.584129684702447
 30
0.0
 11
88.849648025398054
 21
81.459129684702447
 31
0.0
 70
     0
  1
%%c<>
 13
85.849648025398054
 23
64.298747170415083
 33
0.0
 14
91.849648025398054
 24
64.298747170415083
 34
0.0
  0
LINE
  5
56B
  8
0
 10
84.599648025398054
 20
66.298747170415083
 30
0.0
 11
84.599648025398054
 21
59.669799772706448
 31
0.0
  0
LINE
  5
56C
  8
0
 10
93.099648025398054
 20
66.298747170415083
 30
0.0
 11
93.099648025398054
 21
59.66979977270644
 31
0.0
  0
DIMENSION
  5
570
  8
2
  2
*D4
 10
93.099648025398054
 20
83.268168483164402
 30
0.0
 11
99.974648025398054
 21
85.143168483164402
 31
0.0
 70
     0
  1
%%c<>
 13
84.599648025398054
 23
66.298747170415083
 33
0.0
 14
93.099648025398054
 24
66.298747170415083
 34
0.0
  0
DIMENSION
  5
57D
  8
2
  2
*D5
 10
104.0048694283861
 20
64.298747170415055
 30
0.0
 11
102.1298694283861
 21
57.840413837081748
 31
0.0
 70
     0
 13
93.099648025398054
 23
66.298747170415083
 33
0.0
 14
91.849648025398054
 24
64.298747170415083
 34
0.0
 50
90.0
  0
DIMENSION
  5
58C
  8
2
  2
*D6
 10
108.7698657879715
 20
62.298747170415083
 30
0.0
 11
106.8948657879715
 21
64.298747170415098
 31
0.0
 70
     0
 13
93.099648025398054
 23
66.298747170415083
 33
0.0
 14
91.849648025398054
 24
62.298747170415083
 34
0.0
 50
90.0
  0
DIMENSION
  5
59C
  8
2
  2
*D7
 10
77.892689543513256
 20
60.298747170415091
 30
0.0
 11
76.017689543513242
 21
56.548747170415098
 31
0.0
 70
     0
 13
84.185922129554925
 23
52.798747170415083
 33
0.0
 14
86.794601435357492
 24
60.298747170415083
 34
0.0
 50
90.0
1001
ACAD
1000
DSTYLE
1002
{
1070
   271
1070
     6
1002
}
  0
DIMENSION
  5
5B3
  8
2
  2
*D8
 10
113.9160616906687
 20
66.298747170415069
 30
0.0
 11
112.0410616906687
 21
59.548747170415091
 31
0.0
 70
     0
 13
93.513373921241183
 23
52.798747170415083
 33
0.0
 14
93.099648025398054
 24
66.298747170415083
 34
0.0
 50
90.0
1001
ACAD
1000
DSTYLE
1002
{
1070
   271
1070
     6
1002
}
  0
DIMENSION
  5
5CB
  8
2
  2
*D9
 10
93.849648025666298
 20
41.056666777054843
 30
0.0
 11
88.858646319129321
 21
41.056666777054843
 31
0.0
 70
   128
  1
%%c<>
 13
83.849648025129795
 23
53.169770060435361
 33
0.0
 14
93.849648025666298
 24
53.169770060435361
 34
0.0
1001
ACAD
1000
DSTYLE
1002
{
1070
   271
1070
     6
1002
}
  0
DIMENSION
  5
605
  8
2
  2
*D10
 10
91.349648025398054
 20
46.058431454057377
 30
0.0
 11
99.057981358731396
 21
47.933431454057377
 31
0.0
 70
     0
  1
%%c<>
 13
86.349648025398054
 23
54.289298680024046
 33
0.0
 14
91.349648025398054
 24
54.289298680024046
 34
0.0
1001
ACAD
1000
DSTYLE
1002
{
1070
   271
1070
     6
1002
}
  0
DIMENSION
  5
620
  8
2
  2
*D11
 10
95.104290436419248
 20
35.88087597165606
 30
0.0
 11
88.849648025398054
 21
37.75587597165606
 31
0.0
 70
     0
  1
%%c<>
 13
82.595005614376845
 23
57.461655321543127
 33
0.0
 14
95.104290436419248
 24
57.461655321543127
 34
0.0
1001
ACAD
1000
DSTYLE
1002
{
1070
   271
1070
     1
1002
}
  0
ENDSEC
  0
EOF
